<?xml version="1.0" standalone="no"?>
<!DOCTYPE svg PUBLIC "-//W3C//DTD SVG 1.1//EN" "http://www.w3.org/Graphics/SVG/1.1/DTD/svg11.dtd" >
<svg xmlns="http://www.w3.org/2000/svg">
<metadata>Generated by IcoMoon</metadata>
<defs>
<font id="afterlogic" horiz-adv-x="512">
<font-face units-per-em="512" ascent="512" descent="0" />
<missing-glyph horiz-adv-x="512" />
<glyph unicode="&#x20;" horiz-adv-x="256" d="" />
<glyph unicode="&#xe600;" glyph-name="new-message" d="M359.875 440.094c-4.365-0.070-7.876-3.625-7.876-8 0-0.044 0-0.088 0.001-0.132v-52.649l-37.25 37.25c-1.454 1.486-3.479 2.406-5.719 2.406-0.010 0-0.022 0-0.032 0-4.416-0.001-7.998-3.582-7.998-8.001 0-2.255 0.933-4.293 2.435-5.747l37.284-37.252h-52.719c-0.122 0.007-0.264 0.011-0.406 0.011s-0.285-0.004-0.426-0.011c-4.226-0.222-7.584-3.719-7.584-7.999 0-4.424 3.587-8.011 8.010-8.011 0.142 0 0.284 0.003 0.425 0.011l52.637-0.001-37.25-37.25c-1.445-1.449-2.339-3.448-2.339-5.656 0-4.424 3.587-8.010 8.010-8.010 2.216 0 4.221 0.899 5.671 2.354l37.25 37.25v-52.688c-0-0.034-0.001-0.074-0.001-0.113 0-4.418 3.582-8.001 8.001-8.001s8.001 3.582 8.001 8.001c0 0.040-0 0.080-0.001 0.119v52.713l37.25-37.25c1.459-1.517 3.505-2.459 5.772-2.459 4.418 0 8.001 3.582 8.001 8.001 0 2.267-0.942 4.313-2.457 5.769l-37.221 37.221h52.656c0.034-0 0.074-0.001 0.113-0.001 4.418 0 8.001 3.582 8.001 8.001s-3.582 8.001-8.001 8.001c-0.039 0-0.079-0-0.119-0.001h-52.713l37.281 37.25c1.486 1.454 2.408 3.48 2.408 5.721 0 4.418-3.582 8.001-8.001 8.001-0.077 0-0.154-0.001-0.231-0.003-2.149-0.061-4.086-0.971-5.488-2.404l-37.252-37.252v52.688c0 0.037 0.001 0.081 0.001 0.125 0 4.418-3.582 8.001-8.001 8.001-0.044 0-0.088-0-0.132-0.001zM104.375 400.251c-22.344 0-40.25-18.957-40.25-41.719v-6.344c-0.048-0.328-0.075-0.708-0.075-1.094s0.028-0.765 0.080-1.137l-0.005-196.301c0-22.762 17.948-41.719 40.281-41.719h303.25c22.334 0 40.219 18.971 40.219 41.719v94.313c0 0.034 0.001 0.074 0.001 0.113 0 4.418-3.582 8.001-8.001 8.001s-8.001-3.582-8.001-8.001c0-0.040 0-0.079 0.001-0.119v-94.306c0-14.5-10.904-25.719-24.219-25.719h-303.25c-13.314 0-24.281 11.232-24.281 25.719v182.125l169.094-116.469c1.475-1.964 3.798-3.221 6.417-3.221 0.073 0 0.147 0.001 0.22 0.003 0.142-0.010 0.32-0.017 0.5-0.017 2.624 0 4.952 1.263 6.411 3.214l44.64 30.74c2.167 1.454 3.575 3.895 3.575 6.665 0 4.418-3.582 8.001-8.001 8.001-0.136 0-0.271-0.003-0.405-0.010-1.583-0.079-3.045-0.617-4.255-1.484l-42.32-29.171-175.875 121.156v3.344c0 14.486 10.945 25.719 24.25 25.719h123.625c0.034-0 0.073-0.001 0.113-0.001 4.418 0 8.001 3.582 8.001 8.001s-3.582 8.001-8.001 8.001c-0.040 0-0.079-0.001-0.119-0.001h-123.619z" />
<glyph unicode="&#xe601;" glyph-name="add-contact" d="M343.344 408.125c-4.365-0.070-7.876-3.625-7.876-8 0-0.044 0-0.088 0.001-0.132v0.007-64h-64c-0.034 0-0.074 0.001-0.113 0.001-4.418 0-8.001-3.582-8.001-8.001s3.582-8.001 8.001-8.001c0.040 0 0.079 0 0.119 0.001h63.994v-64c-0-0.034-0.001-0.074-0.001-0.113 0-4.418 3.582-8.001 8.001-8.001s8.001 3.582 8.001 8.001c0 0.040-0 0.079-0.001 0.119v-0.006 64h64c0.034-0 0.074-0.001 0.113-0.001 4.418 0 8.001 3.582 8.001 8.001s-3.582 8.001-8.001 8.001c-0.040 0-0.079-0-0.119-0.001h-63.994v64c0 0.037 0.001 0.081 0.001 0.125 0 4.418-3.582 8.001-8.001 8.001-0.044 0-0.088-0-0.132-0.001h0.007zM256 384c-24.703 0-45.25-9.603-59.063-25.594s-20.938-37.939-20.938-62.406c0-24.933 9.339-48.56 23.844-66.25 4.2-5.123 8.909-9.697 13.938-13.719-0.317-0.827-0.5-1.785-0.5-2.786 0-0.031 0-0.063 0-0.094v0.005c0-13.89-3.736-22.849-9.719-29.813s-14.703-12.013-25.125-15.969c-11.673-4.414-26.125-11.276-38.844-21.25s-23.928-23.31-27.438-40.531c-0.102-0.479-0.16-1.030-0.16-1.594 0-4.421 3.584-8.004 8.004-8.004 3.856 0 7.076 2.728 7.835 6.359l0.009 0.052c2.49 12.219 10.768 22.611 21.625 31.125s24.073 14.873 34.656 18.875c0 0.005 0 0.010 0 0.015s0 0.011 0 0.017v-0.001c11.834 4.492 23.109 10.632 31.563 20.469 7.298 8.493 11.911 19.844 13.094 33.656 8.55-4.112 17.704-6.563 27.219-6.563 9.706 0 18.845 2.521 27.188 6.938 1.128-13.984 5.765-25.461 13.125-34.031 8.449-9.838 19.728-15.976 31.563-20.469 0-0.005 0-0.010 0-0.015s0-0.011 0-0.017v0.001c10.589-4.002 23.769-10.361 34.625-18.875s19.151-18.899 21.656-31.125c0.768-3.683 3.988-6.411 7.844-6.411 4.421 0 8.004 3.584 8.004 8.004 0 0.564-0.058 1.115-0.17 1.646l0.009-0.052c-3.527 17.214-14.752 30.558-27.469 40.531s-27.161 16.836-38.844 21.25c-10.421 3.955-19.115 9.007-25.094 15.969s-9.719 15.921-9.719 29.813c0 0.023 0 0.050 0 0.078 0 1.466-0.394 2.841-1.084 4.023l0.021-0.038c7.7 6.923 14.366 15.488 19.625 25.063 0.661 1.139 1.052 2.507 1.052 3.966 0 4.418-3.582 8.001-8.001 8.001-3.058 0-5.715-1.716-7.062-4.236l-0.021-0.043c-11.329-20.625-28.781-33.969-47.25-33.969-15.614 0-31.601 9.021-43.781 23.875s-20.219 35.235-20.219 56.125c0 21.372 6.191 39.419 17.031 51.969s26.279 20.031 46.969 20.031c0.034-0 0.074-0.001 0.113-0.001 4.418 0 8.001 3.582 8.001 8.001s-3.582 8.001-8.001 8.001c-0.040 0-0.079-0-0.119-0.001h0.006z" />
<glyph unicode="&#xe602;" glyph-name="empty-folder" d="M316.531 426.062c-4.418-0.001-7.999-3.582-7.999-8.001 0-2.255 0.933-4.293 2.435-5.747l53.034-53.034-53.031-53.031c-1.517-1.459-2.46-3.505-2.46-5.772 0-4.418 3.582-8.001 8.001-8.001 2.267 0 4.313 0.942 5.769 2.457l53.034 53.034 53.031-53.031c1.458-1.516 3.504-2.458 5.769-2.458 4.418 0 8.001 3.582 8.001 8.001 0 2.265-0.942 4.311-2.455 5.767l-53.034 53.034 53.031 53.031c1.506 1.457 2.441 3.496 2.441 5.753 0 4.418-3.582 8.001-8.001 8.001-0.089 0-0.178-0.001-0.265-0.004-2.151-0.071-4.088-0.99-5.485-2.435l-53.034-53.034-53.031 53.031c-1.457 1.504-3.494 2.438-5.75 2.438 0 0 0 0 0 0zM135 383.969c-20.556 0-39-14.729-39-36.188v-91.813c0-0.014 0-0.029 0-0.045 0-0.437 0.035-0.865 0.102-1.283l-0.134-134.954c0-0.005 0-0.010 0-0.016s0-0.012 0-0.017c-0.003-0.083-0.005-0.182-0.005-0.281s0.002-0.197 0.005-0.296c-0.001 0.014-0.001-0.018-0.001-0.018v-1.969c-0.001-0.027-0.001-0.060-0.001-0.091 0-1.202 0.265-2.341 0.74-3.364 2.454-10.041 11.567-17.669 22.355-17.669 1.736 0 3.337 0.476 4.969 0.844 1.046-0.536 2.283-0.851 3.593-0.851 0.132 0 0.264 0.003 0.395 0.010l191.981-0c0.007 0 0.015 0 0.024 0 0.433 0 0.858 0.034 1.272 0.101 17.544 0.486 30.949 11.185 39.048 26.588 0.556 0.634 1.019 1.366 1.354 2.166 0.021 0.050 0.041 0.091 0.063 0.132 0.046 0.096 0.089 0.2 0.13 0.303l36.238 89.336c0.394 0.914 0.623 1.979 0.623 3.097 0 4.418-3.582 8.001-8.001 8.001-0.087 0-0.174-0.002-0.26-0.004-3.266-0.099-6.040-2.158-7.187-5.039l-36.050-88.961c-6.449-13.538-14.108-19.719-27.253-19.719h-178.969c0.012 0.022 0.045 0.094 0.076 0.166l56.552 159.833h58.344c0.034-0 0.074-0.001 0.113-0.001 4.418 0 8.001 3.582 8.001 8.001s-3.582 8.001-8.001 8.001c-0.040 0-0.079-0-0.119-0.001h-62.556c-0.36 0.069-0.78 0.114-1.208 0.125-0.083 0.003-0.167 0.004-0.252 0.004-0.793 0-1.56-0.115-2.284-0.331-0.048-0.005-0.102-0.015-0.156-0.027-0.171-0.066-0.337-0.129-0.499-0.197-3.060-1.026-5.291-3.849-5.447-7.213l-57.251-161.924c-0.013-0.022-0.045-0.094-0.076-0.166l-0.239-0.709c-0.031-0.087-0.076-0.233-0.115-0.382-0.874-2.997-3.561-5.181-6.856-5.181-4.016 0-7.094 3.095-7.094 7.125l0.128 142.875c0.001 0.043 0.001 0.092 0.001 0.143 0 0.424-0.033 0.841-0.097 1.247l0.006 84.424c0 12.814 9.349 20.188 23 20.188h50c7.007 0 13.022-2.093 16.969-5.219s6.031-6.925 6.031-12.281c0-12.367 5.62-20.957 11.469-25.219s12.063-4.906 12.063-4.906c0.244-0.026 0.526-0.041 0.813-0.041 4.424 0 8.010 3.586 8.010 8.010 0 4.137-3.137 7.542-7.163 7.966-0.035 0.003-1.997 0.219-4.316 1.909s-4.875 4.168-4.875 12.281c0 10.133-4.851 19.082-12.125 24.844s-16.746 8.656-26.875 8.656h-50z" />
<glyph unicode="&#xe603;" glyph-name="mark-as-read" d="M190.938 447.969c-17.188 0-30.969-14.568-30.969-31.969v-189.969l-74.875 51.719 47.719 35.969c1.981 1.474 3.25 3.807 3.25 6.438 0 4.386-3.528 7.947-7.9 8-0.021 0-0.040 0-0.059 0-1.861 0-3.573-0.636-4.933-1.701l-54.858-41.331c-1.327-0.721-2.399-1.762-3.136-3.024-0.020-0.043-0.020-0.048-0.020-0.054s0-0.012 0-0.017c-0.056-0.092-0.129-0.225-0.198-0.36-0.592-1.118-0.927-2.392-0.927-3.744 0-0.018 0-0.036 0-0.054-0.018-0.197-0.028-0.43-0.028-0.665 0-0.493 0.044-0.975 0.13-1.443l-0.007-154.108c0-22.762 17.948-41.719 40.281-41.719h303.25c22.334 0 40.219 18.971 40.219 41.719v154.5c0.034 0.28 0.055 0.603 0.055 0.932 0 0.211-0.008 0.42-0.024 0.626 0.005 0.067 0.008 0.178 0.008 0.288 0 0.835-0.128 1.64-0.365 2.397-0.048 0.158-0.101 0.314-0.159 0.467-0.042 0.090-0.084 0.183-0.127 0.274-0.705 1.728-1.996 3.15-3.624 4.024l-53.637 41.271c-1.349 1.074-3.079 1.723-4.96 1.723-0.091 0-0.182-0.002-0.272-0.005-4.293-0.143-7.731-3.668-7.731-7.997 0-2.614 1.253-4.935 3.192-6.395l46.739-35.952-74.906-51.75v132c0.045 0.32 0.071 0.688 0.071 1.063 0 2.452-1.103 4.647-2.841 6.115l-79.137 80.353c-1.451 1.467-3.464 2.375-5.689 2.375-0.010 0-0.021 0-0.031 0h-73.499zM190.938 431.969h70.156l63.875-64.844h-37.25c-7.317 0-15.281 4.731-15.281 15v17.344c0 0.037 0.001 0.081 0.001 0.125 0 4.418-3.582 8.001-8.001 8.001-0.044 0-0.088-0.001-0.132-0.001-4.358-0.070-7.87-3.625-7.87-8 0-0.044 0-0.088 0.001-0.132v-17.337c0-19.012 16.070-31 31.281-31h48.344v-136.094l-80.063-55.313-80.031 55.281v201c0 9.127 6.78 15.969 14.969 15.969zM207.188 303.97c-4.246-0.221-7.607-3.718-7.607-8 0-4.424 3.587-8.011 8.011-8.011 0.143 0 0.286 0.004 0.429 0.012l95.98-0.001c0.034-0 0.074-0.001 0.113-0.001 4.418 0 8.001 3.582 8.001 8.001s-3.582 8.001-8.001 8.001c-0.040 0-0.079-0-0.119-0.001h-95.994c-0.121 0.006-0.263 0.010-0.406 0.010s-0.285-0.004-0.426-0.011zM431.875 261.75v-140.094c0-14.5-10.904-25.719-24.219-25.719h-303.25c-13.314 0-24.281 11.232-24.281 25.719v140.063l82.469-56.938c0.524-0.482 1.12-0.898 1.768-1.229l84.857-58.584c1.475-1.967 3.8-3.227 6.421-3.227 0.671 0 1.324 0.082 1.947 0.238 1.87 0.312 3.526 1.283 4.717 2.666l85.165 58.823c0.843 0.397 1.565 0.899 2.19 1.502l82.216 56.779zM207.188 255.969c-4.246-0.221-7.607-3.718-7.607-8 0-4.424 3.587-8.010 8.011-8.010 0.143 0 0.286 0.004 0.429 0.012l95.98-0.001c0.034-0 0.074-0.001 0.113-0.001 4.418 0 8.001 3.582 8.001 8.001s-3.582 8.001-8.001 8.001c-0.040 0-0.079-0-0.119-0.001h-95.994c-0.121 0.007-0.263 0.010-0.406 0.010s-0.285-0.003-0.426-0.011z" />
<glyph unicode="&#xe604;" glyph-name="move-to-folder" d="M375.306 440.057c-4.796 0-7.195-3.597-7.195-8.394v-147.485l-57.554 57.555c-8.394 8.393-19.185-3.597-11.99-10.791l71.942-71.944c1.199-1.199 3.597-2.398 5.995-2.398 1.199 0 3.597 1.199 4.796 2.398l71.944 71.944c8.394 7.195-3.597 19.185-10.791 10.791l-58.755-58.755v148.684c0 4.796-3.597 8.393-8.394 8.393zM135.494 383.701c-21.583 0-39.569-14.389-39.569-35.971v-91.13c0-1.199 0-1.199 0-2.398v-134.294c0 0 0 0 0 0 0-1.199 0-1.199 0-1.199v-1.199c0-1.199 0-2.398 1.2-3.597 2.398-9.592 10.791-17.986 21.583-17.986 2.398 0 3.597 1.199 5.995 1.199 1.2 0 2.398-1.199 3.597-1.199h190.652c0 0 0 0 1.199 0 0 0 0 0 0 0 1.199 0 1.199 0 1.199 0 17.985 1.199 31.174 11.99 39.567 27.579 0 0 0 0 0 0s0 1.199 0 1.199c0 0 0 0 0 0v0c0 1.199 1.199 1.199 1.199 1.199s0 0 0 0l35.972 88.729c3.597 9.592-10.791 15.588-15.588 5.995l-35.972-88.73c-5.995-13.19-13.19-19.185-26.378-19.185v0h-178.661c0 0 0 0 0 0l56.356 159.475h57.555c10.791 0 10.791 15.588 0 15.588h-63.55c-3.597 0-7.195-2.398-8.393-5.995l-57.554-164.271c0 0 0 0 0 0-1.2-3.597-3.597-4.796-7.195-4.796s-7.195 2.398-7.195 5.995v143.887c0 0 0 1.199 0 1.199v83.935c0 13.19 9.593 20.384 23.981 20.384h49.161c7.195 0 13.19-2.398 16.787-4.797 4.797-3.597 5.995-7.195 5.995-13.19 0-11.99 5.995-20.384 11.99-25.18 5.995-3.597 11.99-4.797 11.99-4.797 10.792-1.199 13.19 15.588 1.199 16.787 0 0-1.199 0-3.597 1.199-2.398 2.398-4.797 4.796-4.797 11.99 0 10.791-4.797 19.185-11.99 25.18s-16.786 8.394-27.578 8.394h-49.161z" />
<glyph unicode="&#xe605;" glyph-name="mark-as-spam" d="M247.007 436.459c-1.199 0-2.398-1.199-3.597-1.199-44.365-28.777-61.153-74.342-63.551-116.309-2.398-34.773 4.797-63.551 13.19-85.134-15.588 3.597-27.578 13.19-33.573 25.18-7.195 16.787-8.393 32.375-8.393 32.375 0 7.195-9.593 9.593-14.388 3.597-16.787-22.783-29.977-49.162-29.977-82.736 0-73.142 59.953-131.896 134.295-131.896 73.144 0 133.095 58.755 133.095 131.896 0 26.38-8.394 49.162-19.185 69.546-3.597 5.995-8.394 17.986-10.791 31.176s-1.199 27.578 5.995 39.569c3.597 5.995-2.398 14.389-9.592 11.99-22.781-8.393-37.169-20.383-44.364-35.971-4.796-9.593-4.796-22.782-5.995-34.773-32.375 44.365-34.773 95.925-34.773 134.295 0 4.796-3.597 8.394-8.393 8.394zM241.012 412.478c1.199-41.967 4.797-98.323 47.963-145.087 4.796-5.995 14.389-2.398 14.389 4.796 0 22.783 1.199 38.37 7.195 49.162 3.597 8.394 10.791 13.19 19.183 19.185-2.398-10.791-2.398-20.384-1.199-29.977 2.398-15.588 7.195-28.777 11.99-37.171 10.791-19.185 17.986-39.57 17.986-61.153 0-63.549-52.757-116.308-117.507-116.308-65.949 0-118.707 52.759-118.707 116.308 0 22.783 8.394 40.769 17.986 57.555 1.199-5.995 1.199-8.393 4.796-16.787 9.593-19.185 28.777-39.57 61.152-39.57 5.995 0 9.593 5.995 7.195 11.99-9.593 16.787-20.384 53.958-17.986 92.329 2.398 34.773 15.588 69.546 45.565 94.726z" />
<glyph unicode="&#xe606;" glyph-name="to-trash" d="M230.975 447.981c-19.031 0-34.934-13.856-38.272-31.975h-80.719c-0.025 0.001-0.055 0.001-0.085 0.001-4.418 0-8-3.582-8-8.001s3.582-8 8-8c0.029 0 0.059 0 0.089 0h287.973c0.025-0 0.055-0 0.084-0 4.418 0 8 3.582 8 8s-3.582 8.001-8 8.001c-0.029 0-0.060 0-0.089-0.001h-80.714c-3.334 18.115-19.219 31.975-38.272 31.975h-49.996zM230.975 431.981h49.996c10.351 0 18.884-6.682 21.824-15.975h-93.618c2.953 9.283 11.487 15.975 21.798 15.975zM372.489 383.133c-4.099-0.178-7.389-3.415-7.648-7.476l-20.175-266.062c-0.016-0.186-0.025-0.404-0.026-0.623 0-16.916-10.696-28.95-21.774-28.95h-133.764c-11.077 0-21.774 12.037-21.774 28.949-0.003 0.192-0.012 0.375-0.028 0.558l-16.946 262.009c-0.264 4.205-3.739 7.517-7.988 7.517-4.42 0-8.004-3.583-8.004-8.004 0-0.189 0.006-0.376 0.019-0.562l16.947-262.014v0.496c0-23.888 15.956-44.949 37.772-44.949h133.764c21.816 0 37.772 21.064 37.772 44.949l-0.026-0.608 20.173 266.038c0.022 0.219 0.034 0.474 0.034 0.732 0 4.418-3.582 8-8 8-0.117 0-0.233-0.003-0.349-0.008zM185.429 352.109c-0.058 0.001-0.126 0.002-0.195 0.002-4.418 0-8-3.582-8-8 0-0.203 0.007-0.404 0.023-0.603l12.748-215.964c0.284-4.187 3.75-7.476 7.984-7.476 4.419 0 8.001 3.582 8.001 8.002 0 0.147-0.004 0.294-0.012 0.44l-12.748 215.97c-0.202 4.188-3.595 7.52-7.79 7.624zM230.125 352.109c-4.268-0.19-7.656-3.696-7.656-7.993 0-0.116 0.002-0.233 0.007-0.348l6.174-215.974c0.139-4.311 3.667-7.753 7.999-7.753 4.419 0 8.002 3.583 8.002 8.003 0 0.070-0.001 0.139-0.002 0.209l-6.174 215.98c-0.066 4.368-3.623 7.883-8 7.883-0.123 0-0.245-0.003-0.368-0.009zM283.546 352.109c-0.053 0.001-0.115 0.002-0.176 0.002-4.348 0-7.886-3.469-7.998-7.79l-8.050-216c-0.017-0.195-0.026-0.422-0.026-0.651 0-4.418 3.582-8 8-8s8 3.582 8 8c0 0.015 0 0.031 0 0.046l8.050 215.988c0.007 0.12 0.010 0.261 0.010 0.402 0 4.351-3.474 7.892-7.8 7.998zM327.267 352.109c-4.1-0.22-7.368-3.496-7.574-7.58l-13.7-216.011c-0.010-0.146-0.015-0.315-0.015-0.487 0-4.421 3.583-8.003 8.003-8.003 4.231 0 7.695 3.284 7.984 7.442l13.675 216.015c0.016 0.19 0.025 0.411 0.025 0.634 0 4.418-3.582 8-8 8-0.14 0-0.28-0.004-0.419-0.011z" />
<glyph unicode="&#xe607;" glyph-name="refresh" d="M256 404.658c82.005 0 148.688-66.683 148.688-148.688s-66.683-148.656-148.688-148.656c-82.005 0-148.656 66.651-148.656 148.656 0 43.257 21.536 93.32 66.25 128h-77.594c-0.034-0-0.073-0.001-0.113-0.001-4.418 0-8.001 3.582-8.001 8.001s3.582 8.001 8.001 8.001c0.040 0 0.079-0 0.119-0.001h102.494c0.549 0.135 1.18 0.212 1.829 0.212 4.418 0 8.001-3.582 8.001-8.001 0-0.811-0.12-1.593-0.345-2.33l0.015-101.881c0-0.034 0.001-0.073 0.001-0.113 0-4.418-3.582-8.001-8.001-8.001s-8.001 3.582-8.001 8.001c0 0.040 0 0.079 0.001 0.119v89.588c-46.719-31.777-68.656-81.123-68.656-121.594 0-73.355 59.302-132.656 132.656-132.656s132.688 59.301 132.688 132.656c0 73.355-59.332 132.688-132.688 132.688-0.034-0-0.073-0.001-0.113-0.001-4.418 0-8.001 3.582-8.001 8.001s3.582 8.001 8.001 8.001c0.040 0 0.079-0 0.119-0.001z" />
<glyph unicode="&#xe608;" glyph-name="mark-not-spam" d="M419.855 263.909c7.116 5.601 16.725 19.294 16.879 33.681 0.103 11.536-5.729 26.693-34.041 33.373-5.113 1.208-10.457 1.798-16.365 1.798-6.526 0-12.692-0.719-18.729-1.387-5.241-0.616-10.2-1.182-14.721-1.182-11.587 0-20.964 3.7-29.159 21.709-2.44 5.369-5.318 20.27 2.595 59.835 5.318 26.513 6.217 53.335-23.019 69.752-9.351 5.267-18.652 6.346-25.178 3.006-6.295-3.237-10.019-9.814-11.073-19.551-0.334-2.775-0.154-5.832 0.077-9.84 0.771-12.82 2.055-34.272-17.933-65.076-26.231-28.749-39.976-55.981-42.75-61.788-12.691-7.424-24.227-13.206-35.454-18.832-12.024-6.063-24.51-12.306-38.332-20.528l-49.738-0.77h-6.089c-0.063-59.047 0.099-118.094-0.025-177.141h53.181l27.027-7.913c41.465-21.709 92.591-26.257 128.173-26.257 21.426 0 36.122 1.644 38.691 1.952 2.184-0.18 4.239-0.257 6.14-0.257 13.257 0 24.663 3.905 33.887 11.587 15.671 13.103 20.553 33.245 21.966 41.825 13.745 5.524 22.788 13.873 26.899 24.869 5.036 13.514 1.156 27.284-1.85 34.735 12.024 6.628 19.474 15.466 22.197 26.282 5.575 22.146-11.125 43.187-11.33 43.469-0.565 0.591-1.336 1.593-1.927 2.646z" />
<glyph unicode="&#xe609;" glyph-name="add-contact-group" d="M375.313 424.094c-4.113-0.365-7.313-3.795-7.313-7.971 0-0.043 0-0.086 0.001-0.129v-63.993h-64c-0.034 0-0.074 0.001-0.113 0.001-4.418 0-8.001-3.582-8.001-8.001s3.582-8.001 8.001-8.001c0.040 0 0.079 0 0.119 0.001h63.994v-64c-0-0.037-0.001-0.081-0.001-0.125 0-4.375 3.512-7.929 7.87-8 0.044-0 0.087-0.001 0.132-0.001 4.418 0 8.001 3.582 8.001 8.001 0 0.044-0 0.088-0.001 0.132v63.993h64c0.034-0 0.074-0.001 0.113-0.001 4.418 0 8.001 3.582 8.001 8.001s-3.582 8.001-8.001 8.001c-0.040 0-0.079-0-0.119-0.001h-63.994v64c0 0.036 0.001 0.079 0.001 0.123 0 4.418-3.582 8.001-8.001 8.001-0.242 0-0.481-0.011-0.718-0.032zM278.906 391.719c-24.879 0-44.637-10.693-57.188-27.531s-18.281-39.264-18.281-63.469c0-24.67 7.99-48.627 21.281-66.875 3.89-5.341 8.317-10.147 13.125-14.375-0.601-11.851-4.025-20.040-9.469-26.375-3.55-4.132-8.3-7.45-13.563-10.406-3.037 7.459-8.381 13.408-14.156 17.938-7.245 5.683-15.26 9.481-21.781 11.938-5.231 1.993-9.285 4.445-11.906 7.5-2.541 2.961-4.144 6.68-4.25 13 1.248 1.382 2.586 2.676 3.688 4.188 7.623 10.459 12.125 23.969 12.125 38 0 13.557-3.178 26.327-10.531 36.188s-19.284 16.25-33.625 16.25c-14.328 0-26.214-6.39-33.563-16.25s-10.531-22.631-10.531-36.188c0-14.028 4.48-27.539 12.094-38 1.79-2.459 3.831-4.721 6-6.813-0.504-4.557-1.757-7.909-3.875-10.375-2.627-3.060-6.684-5.505-11.938-7.5-6.501-2.455-14.506-6.256-21.75-11.938s-13.944-13.493-16.063-23.875c-0.119-0.517-0.187-1.11-0.187-1.719 0-4.374 3.511-7.928 7.867-8 0.048-0.001 0.098-0.002 0.148-0.002 3.888 0 7.129 2.774 7.85 6.45 1.106 5.428 4.874 10.328 10.258 14.55s12.129 7.522 17.531 9.563c0.004 0 0.010 0 0.016 0s0.011 0 0.017 0c6.666 2.533 13.309 6.096 18.406 12.031 2.773 3.229 4.879 7.214 6.281 11.688 3.63-1.315 7.401-2.25 11.438-2.25 4.974 0 9.563 1.399 13.906 3.344 1.382-4.921 3.572-9.298 6.563-12.781 5.094-5.935 11.748-9.498 18.406-12.031 5.415-2.039 12.211-5.341 17.594-9.563 4.6-3.608 7.893-7.712 9.469-12.188-11.144-4.43-24.168-10.764-35.906-19.969-12.719-9.974-23.928-23.31-27.438-40.531-0.114-0.507-0.18-1.090-0.18-1.688 0-4.372 3.506-7.925 7.861-8 0.049-0.001 0.099-0.002 0.148-0.002 3.888 0 7.129 2.774 7.851 6.45 2.499 12.27 10.776 22.661 21.633 31.175s24.073 14.904 34.656 18.906c11.834 4.492 23.109 10.632 31.563 20.469 6.032 7.020 10.256 15.962 12.25 26.625 8.079-4.102 16.855-6.531 26.156-6.531 11.122 0 21.409 3.446 30.688 9.125 1.732-11.841 6.202-21.63 12.719-29.219 8.449-9.838 19.759-15.976 31.594-20.469 10.589-4.002 23.769-10.392 34.625-18.906s19.151-18.9 21.656-31.125c0.724-3.691 3.907-6.446 7.744-6.5 0.043-0 0.086-0.001 0.13-0.001 4.418 0 8.001 3.582 8.001 8.001 0 0.609-0.068 1.202-0.197 1.772-3.517 17.161-14.743 30.473-27.459 40.447s-27.161 16.866-38.844 21.281v-0.032c-10.421 3.955-19.115 9.007-25.094 15.969s-9.719 15.921-9.719 29.813c0 0.041 0.001 0.089 0.001 0.137 0 0.36-0.024 0.713-0.070 1.060 5.928 6.084 11.196 13.141 15.473 20.928 0.776 1.211 1.236 2.688 1.236 4.272 0 4.418-3.582 8.001-8.001 8.001-3.178 0-5.923-1.853-7.214-4.537-11.349-20.673-28.803-34.017-47.271-34.017-15.473 0-30.12 9.219-41.25 24.5s-18.219 36.315-18.219 57.469c0 21.636 5.288 40.709 15.125 53.906s23.83 21.094 44.344 21.094c0.034-0 0.074-0.001 0.113-0.001 4.418 0 8.001 3.582 8.001 8.001s-3.582 8.001-8.001 8.001c-0.040 0-0.079-0.001-0.119-0.001zM134.375 311.688c9.98 0 16.143-3.593 20.781-9.813s7.375-15.637 7.375-26.625c0-10.513-3.601-21.101-9.063-28.594s-12.276-11.594-19.094-11.594c-6.817 0-13.609 4.102-19.063 11.594s-9.031 18.077-9.031 28.594c0 10.988 2.708 20.405 7.344 26.625s10.79 9.813 20.75 9.813z" />
<glyph unicode="&#xe60a;" glyph-name="global-all" d="M255.344 438.313c-29.871 0-53.677-11.946-69.625-31.219-14.225-17.19-22.090-39.95-24.875-65-0.656-1.136-1.042-2.497-1.042-3.95 0-0.764 0.107-1.501 0.306-2.201-0.016 0.036-0.012 0.015-0.014-0.006-5.559-6.223-8.594-14.853-8.594-24.469 0-11.583 5.001-21.257 13.125-27.125 6.993-26.599 21.142-50.499 39.75-66.656-0.581-16.721-5.374-28.336-13.031-37.25-8.16-9.5-19.896-16.233-33.688-21.469-15.046-5.702-33.654-14.57-49.938-27.344s-30.476-29.702-34.906-51.375c-0.106-0.488-0.166-1.048-0.166-1.623 0-4.422 3.585-8.007 8.007-8.007 3.858 0 7.078 2.728 7.838 6.36 3.418 16.731 14.678 30.738 29.103 42.052s31.788 19.678 45.75 24.969c15.201 5.772 29.524 13.623 40.156 26 8.224 9.573 13.858 21.904 16.031 36.969 10.973-6.125 22.929-9.969 35.813-9.969 15.374 0 29.536 5.161 42.094 13.656 1.738-16.713 7.447-30.338 16.313-40.656 10.634-12.377 24.947-20.228 40.156-26 13.954-5.291 31.324-13.654 45.75-24.969s25.684-25.322 29.094-42c0.769-3.684 3.989-6.411 7.846-6.411 4.422 0 8.007 3.585 8.007 8.007 0 0.575-0.060 1.135-0.175 1.676-4.421 21.622-18.611 38.55-34.897 51.322s-34.9 21.642-49.938 27.344c-13.799 5.236-25.526 11.969-33.688 21.469s-13.25 21.834-13.25 40.406c0.001 0.041 0.001 0.089 0.001 0.137 0 0.706-0.091 1.391-0.264 2.043 15.509 15.702 27.202 37.229 33.481 60.663 8.969 5.508 14.625 15.606 14.625 27.781 0 10.173-3.858 18.879-10.125 25.125-2.159 27.413-10.246 52.423-25.719 70.906-15.945 19.046-39.631 30.813-69.313 30.813zM255.344 422.313c25.599 0 43.904-9.413 57.031-25.094 8.858-10.581 15.019-24.431 18.75-40.156-15.492-1.433-26.733 3.433-37.031 15.594-1.476 1.728-3.658 2.816-6.094 2.816-0.088 0-0.175-0.001-0.262-0.004-2.731-0.080-5.118-1.531-6.5-3.686-15.947-25.378-42.497-31.931-66.55-32.22-18.013-0.216-30.759 2.725-37.531 4.5 2.898 21.049 9.811 39.474 20.875 52.844 13.14 15.879 31.552 25.406 57.313 25.406zM289.313 357c12.336-11.007 27.206-17.476 44.563-15.938 0.309-2.642 0.824-5.154 1-7.875 0.167-2.534 1.49-4.727 3.442-6.077 2.668-1.826 6.183-7.905 6.183-15.643 0-9.505-5.199-15.678-7.688-16.313-2.832-0.751-5.014-2.944-5.738-5.726-10.94-42.962-41.871-76.43-75.731-76.43-33.986 0-65.038 33.726-75.844 76.844-0.639 2.521-2.411 4.529-4.728 5.481-2.617 1.038-7.272 7.252-7.272 16.144 0 7.067 2.899 12.821 5.469 15.031 0.577 0.513 1.073 1.1 1.48 1.748 8.251-2.055 21.589-4.911 40.426-4.685 24.808 0.298 54.519 8.111 74.438 33.438z" />
<glyph unicode="&#xe60b;" glyph-name="back-to-previuos" d="M324.344 398.031c-2.161-0.097-4.085-1.037-5.465-2.497l-0.003-0.003-127.344-131.844c-2.002-1.472-3.287-3.818-3.287-6.465 0-0.111 0.002-0.222 0.007-0.332l-0 0.016c0.009-0.286 0.031-0.556 0.067-0.822l-0.005 0.041c0-0.005 0-0.010 0-0.015s0-0.011 0-0.017v0.001c0.030-0.235 0.064-0.425 0.103-0.615l-0.009 0.052c0.393-1.986 1.475-3.671 2.981-4.83l0.019-0.014 127.5-131.375c1.474-1.689 3.632-2.75 6.036-2.75 4.418 0 8.001 3.582 8.001 8.001 0 2.319-0.987 4.408-2.563 5.869l-0.005 0.005-122.938 126.688 122.969 127.281c1.433 1.445 2.32 3.436 2.32 5.633 0 4.418-3.582 8.001-8.001 8.001-0.134 0-0.267-0.003-0.399-0.010l0.019 0z" />
<glyph unicode="&#xe60c;" glyph-name="reply" d="M247.007 377.705c-1.199 0-3.597-1.2-4.797-2.398l-127.1-110.314c-3.597-3.597-3.597-9.593 0-11.991l128.3-112.711c4.797-3.597 13.19 0 13.19 7.195l-1.199 59.952c89.928-4.796 145.086-91.128 145.086-91.128 4.796-7.195 15.588-3.597 14.389 4.796-5.995 61.153-26.38 105.517-56.356 135.494-27.579 28.777-63.549 41.967-101.92 45.564-1.199 27.579-1.199 67.148-1.199 67.148 0 4.796-3.597 8.394-8.393 8.394zM239.813 352.524c0-14.389 0-35.971 0-57.555 0-3.597 3.597-7.195 8.393-7.195 38.371-2.398 73.143-15.588 99.521-41.967 20.384-21.584 34.773-53.958 44.365-94.725-22.783 27.579-65.949 74.341-143.887 74.341-4.797 0-8.393-3.597-8.393-8.394v-52.757l-107.915 94.725 107.916 93.527z" />
<glyph unicode="&#xe60d;" glyph-name="reply-all" d="M199.044 377.705c0 0 0 0 0 0-2.398 0-3.597-1.2-5.995-2.398l-127.1-110.314c-3.597-3.597-3.597-9.593 0-11.991l128.299-112.711c8.393-5.995 17.986 5.995 10.791 13.19l-121.105 105.517 119.906 104.319c5.995 4.796 2.398 14.388-4.797 14.388zM262.595 377.705c-2.398 0-3.597-1.2-4.796-2.398l-127.101-110.314c-3.597-3.597-3.597-9.593 0-11.991l127.101-112.711c5.995-3.597 13.19 0 13.19 7.195v59.952c89.928-4.796 145.086-91.128 145.086-91.128 3.597-7.195 15.588-3.597 14.389 4.796-5.995 61.153-26.38 105.517-56.356 135.494-27.579 28.777-63.549 41.967-103.118 45.564 0 27.579 0 67.148 0 67.148 0 4.796-3.597 8.394-8.394 8.394zM255.4 352.524c0-14.389 0-35.971 0-57.555 0-3.597 3.597-7.195 7.194-7.195 39.57-2.398 73.142-15.588 100.721-41.967 20.384-21.584 34.773-53.958 43.166-94.725-21.584 27.579-64.75 74.341-143.887 74.341-3.597 0-7.195-3.597-7.195-8.394v-52.757l-107.916 94.725 107.916 93.527z" />
<glyph unicode="&#xe60e;" glyph-name="forward" d="M247.007 377.705c-3.597 0-7.195-3.597-7.195-8.394v-65.948h-104.319c-3.597 0-7.195-3.597-7.195-7.195v-80.338c0-3.597 3.597-7.195 7.195-7.195l104.319-1.199 1.199-61.151c0-5.995 7.195-9.592 13.19-4.796l118.707 109.114c3.597 2.398 3.597 8.394 0 10.791l-119.906 113.911c-1.2 1.2-3.597 2.398-5.995 2.398zM255.4 351.326l100.72-94.727-99.522-91.128-1.199 50.36c0 4.796-3.597 8.394-7.195 8.394h-104.319v63.55h104.319c3.597 0 7.195 3.597 7.195 7.195v56.356z" />
<glyph unicode="&#xe60f;" glyph-name="print" d="M190.938 400.469c-17.188 0-30.969-14.568-30.969-31.969v-118.813h-55.563c-22.338 0-40.281-18.926-40.281-41.688v-54c0-22.762 17.938-41.75 40.281-41.75h303.25c22.332 0 40.219 18.998 40.219 41.75v54c0 22.762-17.923 41.688-40.25 41.688h-55.563v61.969c-0 2.194-0.884 4.18-2.313 5.625l-79.593 80.781c-1.454 1.485-3.478 2.406-5.719 2.406h-73.5zM190.938 384.469h70.156l62.75-63.688h-40.125c-7.317 0-15.281 4.7-15.281 14.969v17.375c0 0.028 0 0.061 0 0.094 0 4.418-3.582 8.001-8.001 8.001-0.044 0-0.087-0-0.132-0.001-4.358-0.070-7.869-3.625-7.869-8 0-0.033 0-0.066 0-0.099v-17.37c0-19.012 16.071-30.969 31.282-30.969h52.344v-96.813h-160.094v32.469c0.065 0.385 0.103 0.829 0.103 1.281s-0.037 0.896-0.109 1.328l0.006 125.453c0 9.127 6.78 15.969 14.969 15.969zM104.406 233.688h55.563v-25.719h-47.969c-0.121 0.007-0.263 0.010-0.406 0.010s-0.285-0.003-0.426-0.011c-4.226-0.221-7.584-3.718-7.584-7.999 0-4.424 3.587-8.010 8.010-8.010 0.143 0 0.285 0.003 0.426 0.011l287.981-0.001c0.034-0 0.074-0.001 0.113-0.001 4.418 0 8.001 3.582 8.001 8.001s-3.582 8.001-8.001 8.001c-0.040 0-0.079-0-0.119-0.001h-47.931v25.719h55.563c13.289 0 24.25-11.201 24.25-25.688v-54c0-14.495-10.934-25.75-24.219-25.75h-303.25c-13.305 0-24.281 11.264-24.281 25.75v54c0 14.486 10.972 25.688 24.281 25.688z" />
<glyph unicode="&#xe610;" glyph-name="download-message" d="M247.875 440.094c-4.364-0.070-7.876-3.625-7.876-8 0-0.044 0-0.088 0.001-0.132v-219.806l-66.188 70.313c-1.414 1.54-3.414 2.523-5.644 2.594-0.078 0.002-0.155 0.004-0.232 0.004-4.418 0-8.001-3.582-8.001-8.001 0-2.163 0.859-4.127 2.254-5.567l78.311-83.216c1.316-2.721 4.055-4.565 7.226-4.565 0.075 0 0.149 0.001 0.222 0.003 0.089-0.005 0.208-0.007 0.326-0.007 3.196 0 5.954 1.874 7.237 4.584l78.302 83.205c1.396 1.438 2.256 3.403 2.256 5.569 0 4.3-3.392 7.807-7.646 7.993-0.111 0.005-0.221 0.007-0.332 0.007-2.334 0-4.435-1-5.897-2.594l-66.193-70.319v219.813c0 0.037 0.001 0.081 0.001 0.125 0 4.418-3.582 8.001-8.001 8.001-0.044 0-0.088-0.001-0.132-0.001zM79.188 95.969c-4.246-0.221-7.606-3.718-7.606-8 0-4.424 3.587-8.010 8.010-8.010 0.144 0 0.287 0.004 0.428 0.012l319.98-0.001c0.034-0 0.074-0.001 0.113-0.001 4.418 0 8.001 3.582 8.001 8.001s-3.582 8.001-8.001 8.001c-0.040 0-0.079-0-0.119-0.001h-319.994c-0.121 0.007-0.263 0.010-0.406 0.010s-0.285-0.003-0.426-0.011z" />
<glyph unicode="&#xe611;" glyph-name="open-in-new-window" d="M423.897 432.080c-0.31-0.009-0.619-0.032-0.925-0.080h-134.972c-10.813 0.144-10.813-16.145 0-15.994h116.554l-191.898-192.409c-7.869-7.495 3.665-19.156 11.246-11.371 0.437 0.128 192.098 192.609 192.098 192.609v-116.835c-0.144-10.813 16.145-10.813 15.994 0v134.903c0.729 4.906-3.138 9.287-8.097 9.171zM136.003 383.995c-4.417-0-7.996-3.581-7.997-7.997v-239.994c0-4.416 3.581-7.997 7.997-7.997h239.994c4.416 0 7.997 3.58 7.997 7.997v55.997c0.16 10.82-16.153 10.82-15.994 0v-48h-224v224h48c10.813-0.144 10.813 16.146 0 15.994z" />
<glyph unicode="&#xe612;" glyph-name="folder-trash" d="M230.975 447.981c-19.031 0-34.934-13.856-38.272-31.975h-80.719c-0.025 0.001-0.055 0.001-0.085 0.001-4.418 0-8-3.582-8-8.001s3.582-8 8-8c0.029 0 0.059 0 0.089 0h287.973c0.025-0 0.055-0 0.084-0 4.418 0 8 3.582 8 8s-3.582 8.001-8 8.001c-0.029 0-0.060 0-0.089-0.001h-80.714c-3.334 18.115-19.219 31.975-38.272 31.975h-49.996zM230.975 431.981h49.996c10.351 0 18.884-6.682 21.824-15.975h-93.618c2.953 9.283 11.487 15.975 21.798 15.975zM372.489 383.133c-4.099-0.178-7.389-3.415-7.648-7.476l-20.175-266.062c-0.016-0.186-0.025-0.404-0.026-0.623 0-16.916-10.696-28.95-21.774-28.95h-133.764c-11.077 0-21.774 12.037-21.774 28.949-0.003 0.192-0.012 0.375-0.028 0.558l-16.946 262.009c-0.264 4.205-3.739 7.517-7.988 7.517-4.42 0-8.004-3.583-8.004-8.004 0-0.189 0.006-0.376 0.019-0.562l16.947-262.014v0.496c0-23.888 15.956-44.949 37.772-44.949h133.764c21.816 0 37.772 21.064 37.772 44.949l-0.026-0.608 20.173 266.038c0.022 0.219 0.034 0.474 0.034 0.732 0 4.418-3.582 8-8 8-0.117 0-0.233-0.003-0.349-0.008zM185.429 352.109c-0.058 0.001-0.126 0.002-0.195 0.002-4.418 0-8-3.582-8-8 0-0.203 0.007-0.404 0.023-0.603l12.748-215.964c0.284-4.187 3.75-7.476 7.984-7.476 4.419 0 8.001 3.582 8.001 8.002 0 0.147-0.004 0.294-0.012 0.44l-12.748 215.97c-0.202 4.188-3.595 7.52-7.79 7.624zM230.125 352.109c-4.268-0.19-7.656-3.696-7.656-7.993 0-0.116 0.002-0.233 0.007-0.348l6.174-215.974c0.139-4.311 3.667-7.753 7.999-7.753 4.419 0 8.002 3.583 8.002 8.003 0 0.070-0.001 0.139-0.002 0.209l-6.174 215.98c-0.066 4.368-3.623 7.883-8 7.883-0.123 0-0.245-0.003-0.368-0.009zM283.546 352.109c-0.053 0.001-0.115 0.002-0.176 0.002-4.348 0-7.886-3.468-7.998-7.79l-8.050-216c-0.017-0.195-0.026-0.422-0.026-0.651 0-4.418 3.582-8 8-8s8 3.582 8 8c0 0.015 0 0.031 0 0.046l8.050 215.988c0.007 0.12 0.010 0.261 0.010 0.402 0 4.351-3.474 7.892-7.8 7.998zM327.267 352.109c-4.1-0.22-7.368-3.496-7.574-7.58l-13.7-216.011c-0.010-0.146-0.015-0.315-0.015-0.487 0-4.421 3.583-8.003 8.003-8.003 4.231 0 7.695 3.284 7.984 7.442l13.675 216.015c0.016 0.19 0.025 0.411 0.025 0.634 0 4.418-3.582 8-8 8-0.14 0-0.28-0.004-0.419-0.011z" />
<glyph unicode="&#xe613;" glyph-name="folder-starred" d="M254.781 441.326c-2.964-0.215-5.461-2.013-6.667-4.546l-52.458-111.954-117.031-17.938c-3.862-0.613-6.781-3.919-6.781-7.907 0-2.162 0.858-4.124 2.252-5.564l84.935-87.216-20.063-123.281c-0.070-0.397-0.11-0.854-0.11-1.321 0-4.418 3.582-8.001 8.001-8.001 1.429 0 2.769 0.375 3.93 1.030l104.554 57.917 104.594-57.938c1.121-0.635 2.462-1.010 3.89-1.010 4.418 0 8.001 3.582 8.001 8.001 0 0.466-0.040 0.924-0.116 1.369l-20.087 123.233 84.938 87.219c1.394 1.438 2.253 3.401 2.253 5.566 0 3.978-2.904 7.279-6.707 7.897l-117.108 17.944-52.406 111.906c-1.306 2.748-4.060 4.613-7.249 4.613-0.198 0-0.395-0.007-0.59-0.022zM255.343 414.481l46.969-100.313c1.13-2.389 3.342-4.105 5.986-4.525l105.952-16.225-76.875-78.969c-1.413-1.442-2.285-3.418-2.285-5.599 0-0.44 0.036-0.871 0.103-1.291l18.056-110.954-94.031 52.094c-1.117 0.63-2.452 1.001-3.875 1.001s-2.758-0.371-3.915-1.022l-93.991-52.073 18.031 111c0.065 0.382 0.102 0.824 0.102 1.273 0 2.166-0.862 4.132-2.26 5.573l-76.904 78.966 105.906 16.219c2.689 0.427 4.901 2.143 6.011 4.483l47.020 100.361z" />
<glyph unicode="&#xe614;" glyph-name="folder-spam" d="M247.007 436.459c-1.199 0-2.398-1.199-3.597-1.199-44.365-28.777-61.153-74.342-63.551-116.309-2.398-34.773 4.797-63.551 13.19-85.134-15.588 3.597-27.578 13.19-33.573 25.18-7.195 16.787-8.393 32.375-8.393 32.375 0 7.195-9.593 9.593-14.388 3.597-16.787-22.783-29.977-49.162-29.977-82.736 0-73.142 59.953-131.896 134.295-131.896 73.144 0 133.095 58.755 133.095 131.896 0 26.38-8.394 49.162-19.185 69.546-3.597 5.995-8.394 17.986-10.791 31.176s-1.199 27.578 5.995 39.569c3.597 5.995-2.398 14.389-9.592 11.99-22.781-8.393-37.169-20.383-44.364-35.971-4.796-9.593-4.796-22.782-5.995-34.773-32.375 44.365-34.773 95.925-34.773 134.295 0 4.796-3.597 8.394-8.393 8.394zM241.012 412.478c1.199-41.967 4.797-98.323 47.963-145.087 4.796-5.995 14.389-2.398 14.389 4.796 0 22.783 1.199 38.37 7.195 49.162 3.597 8.394 10.791 13.19 19.183 19.185-2.398-10.791-2.398-20.384-1.199-29.977 2.398-15.588 7.195-28.777 11.99-37.171 10.791-19.185 17.986-39.57 17.986-61.153 0-63.549-52.757-116.308-117.507-116.308-65.949 0-118.707 52.759-118.707 116.308 0 22.783 8.394 40.769 17.986 57.555 1.199-5.995 1.199-8.393 4.796-16.787 9.593-19.185 28.777-39.57 61.152-39.57 5.995 0 9.593 5.995 7.195 11.99-9.593 16.787-20.384 53.958-17.986 92.329 2.398 34.773 15.588 69.546 45.565 94.726z" />
<glyph unicode="&#xe615;" glyph-name="folder-sent" d="M430.656 441.062c-0.24-0.014-0.456-0.037-0.668-0.067-0.477-0.067-0.942-0.176-1.388-0.324-0.115-0.026-0.23-0.058-0.344-0.093-0.13-0.064-0.264-0.127-0.396-0.193-0.062-0.018-0.115-0.039-0.168-0.061-0.198-0.087-0.393-0.181-0.584-0.283-0.049-0.038-0.11-0.079-0.171-0.121-0.062-0.010-0.094-0.020-0.126-0.031-0.007-0.023-0.038-0.043-0.069-0.064l-351.69-176.138c-1.413-0.433-2.615-1.201-3.558-2.214-0.069-0.067-0.129-0.128-0.189-0.19-0.002-0.007-0.002-0.013-0.002-0.019s0-0.012 0-0.017c-0.168-0.18-0.331-0.373-0.485-0.574-0.014-0.024-0.014-0.029-0.014-0.035s0-0.012 0-0.017c-0.981-1.312-1.572-2.967-1.572-4.761 0-3.654 2.45-6.736 5.796-7.693l108.65-62.077 63.375-111.063c0.072-0.135 0.125-0.226 0.18-0.317 1.386-2.386 3.967-3.988 6.923-3.988 3.851 0 7.067 2.721 7.829 6.347l175.885 351.802c0.039 0.051 0.092 0.122 0.144 0.194 0.017 0.022 0.038 0.063 0.060 0.104 0.112 0.197 0.216 0.392 0.312 0.591 0.022 0.046 0.043 0.087 0.064 0.127 0.084 0.195 0.159 0.402 0.225 0.613 0.014 0.043 0.024 0.084 0.036 0.126 0.068 0.214 0.133 0.433 0.188 0.657 0.010 0.041 0.021 0.082 0.031 0.124 0.046 0.226 0.080 0.45 0.105 0.677 0.039 0.322 0.060 0.655 0.060 0.992 0 0.224-0.009 0.446-0.027 0.666-0.24 2.891-2.017 5.346-4.512 6.544-0.044 0.021-0.086 0.042-0.128 0.063-0.197 0.084-0.405 0.159-0.616 0.225-0.247 0.093-0.496 0.178-0.75 0.251-0.176 0.049-0.355 0.092-0.536 0.13-0.093 0.016-0.178 0.028-0.264 0.038-0.042 0.003-0.048 0.003-0.053 0.003s-0.012 0-0.017 0c-0.224 0.031-0.494 0.053-0.767 0.062-0.096 0.003-0.195 0.005-0.294 0.005s-0.197-0.002-0.296-0.005c-0.014 0.001-0.046 0.001-0.079 0.001s-0.066 0-0.099-0zM390.281 403.656l-202.094-201.688-93.75 53.563 295.844 148.125zM401.844 392.593l-148.313-296.656-54.063 94.688 202.375 201.969z" />
<glyph unicode="&#xe616;" glyph-name="folder-inbox" d="M263.794 440.057c-4.796 0-8.393-3.597-8.393-8.394v-219.429l-65.949 70.745c-1.199 1.199-3.597 2.398-5.995 2.398-7.195-1.199-9.593-8.393-5.995-13.19l79.139-85.133c3.597-3.597 10.791-3.597 13.19 0l80.336 85.132c4.796 4.796 0 13.19-7.195 13.19-1.199 0-3.597-1.199-4.796-2.398l-65.947-70.745v219.429c0 4.796-3.597 8.394-8.394 8.394zM104.319 215.831c-4.796 0-8.394-3.597-8.394-7.195v-119.906c0-4.796 3.597-8.394 8.394-8.394h318.951c4.796 0 8.394 3.597 8.394 8.394v119.906c0 10.791-15.588 10.791-15.588 0v-112.711h-304.562v112.711c0 3.597-3.597 7.195-7.195 7.195z" />
<glyph unicode="&#xe617;" glyph-name="folder-drafts" d="M153.563 447.969c-22.903 0-41.313-19.401-41.313-42.781v-297.718c0-23.355 18.41-42.75 41.313-42.75h204.906c22.867 0 41.281 19.387 41.281 42.75v234.406c0.066 0.386 0.103 0.83 0.103 1.284 0 2.538-1.182 4.8-3.025 6.266-0.036 0.032-0.057 0.053-0.078 0.072l-94.284 96.096c-1.451 1.467-3.464 2.375-5.689 2.375-0.010 0-0.021 0-0.031 0h-143.186zM153.563 431.969h139.844l79.313-80.813-41.188-0.032c-15.069 0-26.781 11.46-26.781 25.313v22.219c0 0.028 0 0.061 0 0.094 0 4.418-3.582 8.001-8.001 8.001-0.044 0-0.087-0-0.132-0.001-4.358-0.071-7.869-3.625-7.869-8 0-0.033 0-0.066 0-0.099v-22.214c0-22.884 19.418-41.313 42.781-41.313l52.219 0.032v-227.688c0-15.069-11.445-26.75-25.281-26.75h-204.906c-13.897 0-25.313 11.673-25.313 26.75v297.719c0 15.116 11.416 26.781 25.313 26.781z" />
<glyph unicode="&#xe618;" glyph-name="group-personal" d="M256.003 336.671c-44.451 0-80.675-36.208-80.675-80.676 0-44.454 36.221-80.675 80.675-80.675s80.675 36.222 80.675 80.675c0 44.468-36.224 80.676-80.675 80.676zM256.003 320.671c35.805 0 64.675-28.855 64.675-64.676 0-35.803-28.873-64.675-64.675-64.675s-64.675 28.873-64.675 64.675c0 35.821 28.87 64.676 64.675 64.676z" />
<glyph unicode="&#xe619;" glyph-name="group-coporate" d="M255.344 438.313c-29.871 0-53.677-11.946-69.625-31.219-14.225-17.19-22.090-39.95-24.875-65-0.656-1.136-1.042-2.497-1.042-3.95 0-0.764 0.107-1.501 0.306-2.201-0.016 0.036-0.012 0.015-0.014-0.006-5.559-6.223-8.594-14.853-8.594-24.469 0-11.583 5.001-21.257 13.125-27.125 6.993-26.599 21.142-50.499 39.75-66.656-0.581-16.721-5.374-28.336-13.031-37.25-8.16-9.5-19.896-16.233-33.688-21.469-15.046-5.702-33.654-14.57-49.938-27.344s-30.476-29.702-34.906-51.375c-0.106-0.488-0.166-1.048-0.166-1.623 0-4.422 3.585-8.007 8.007-8.007 3.858 0 7.078 2.728 7.838 6.36 3.418 16.731 14.678 30.738 29.103 42.052s31.788 19.678 45.75 24.969c15.201 5.772 29.524 13.623 40.156 26 8.224 9.573 13.858 21.904 16.031 36.969 10.973-6.125 22.929-9.969 35.813-9.969 15.374 0 29.536 5.161 42.094 13.656 1.738-16.713 7.447-30.338 16.313-40.656 10.634-12.377 24.947-20.228 40.156-26 13.954-5.291 31.324-13.654 45.75-24.969s25.684-25.322 29.094-42c0.769-3.684 3.989-6.411 7.846-6.411 4.422 0 8.007 3.585 8.007 8.007 0 0.575-0.060 1.135-0.175 1.676-4.421 21.622-18.611 38.55-34.897 51.322s-34.9 21.642-49.938 27.344c-13.799 5.236-25.526 11.969-33.688 21.469s-13.25 21.834-13.25 40.406c0.001 0.041 0.001 0.089 0.001 0.137 0 0.706-0.091 1.391-0.264 2.043 15.509 15.702 27.202 37.229 33.481 60.663 8.969 5.508 14.625 15.606 14.625 27.781 0 10.173-3.858 18.879-10.125 25.125-2.159 27.413-10.246 52.423-25.719 70.906-15.945 19.046-39.631 30.813-69.313 30.813zM255.344 422.313c25.599 0 43.904-9.413 57.031-25.094 8.858-10.581 15.019-24.431 18.75-40.156-15.492-1.433-26.733 3.433-37.031 15.594-1.476 1.728-3.658 2.816-6.094 2.816-0.088 0-0.175-0.001-0.262-0.004-2.731-0.080-5.118-1.531-6.5-3.686-15.947-25.378-42.497-31.931-66.55-32.22-18.013-0.216-30.759 2.725-37.531 4.5 2.898 21.049 9.811 39.474 20.875 52.844 13.14 15.879 31.552 25.406 57.313 25.406zM289.313 357c12.336-11.007 27.206-17.476 44.563-15.938 0.309-2.642 0.824-5.154 1-7.875 0.167-2.534 1.49-4.727 3.442-6.077 2.668-1.826 6.183-7.905 6.183-15.643 0-9.505-5.199-15.678-7.688-16.313-2.832-0.751-5.014-2.944-5.738-5.726-10.94-42.962-41.871-76.43-75.731-76.43-33.986 0-65.038 33.726-75.844 76.844-0.639 2.521-2.411 4.529-4.728 5.481-2.617 1.038-7.272 7.252-7.272 16.144 0 7.067 2.899 12.821 5.469 15.031 0.577 0.513 1.073 1.1 1.48 1.748 8.251-2.055 21.589-4.911 40.426-4.685 24.808 0.298 54.519 8.111 74.438 33.438z" />
<glyph unicode="&#xe61a;" glyph-name="send-contact-as-file" d="M256 432c-101.418 0-176-74.582-176-176s74.582-176 176-176c26.459 0 50.564 6.966 72.813 16.656 2.86 1.264 4.819 4.075 4.819 7.344 0 4.421-3.584 8.005-8.005 8.005-1.153 0-2.249-0.243-3.24-0.683-20.901-9.106-42.733-15.324-66.387-15.324-93.718 0-160 66.282-160 160s66.282 160 160 160c93.702 0 160-66.283 160-160 0-33.931-9.154-69.005-25.969-95.031-0.417-0.416-0.788-0.876-1.106-1.374-5.76-9.084-16.609-16.16-28.55-15.595-10.5 0.497-20.445 4.065-27.781 11.375s-12.594 18.6-12.594 36.625v160c0 0.037 0.001 0.081 0.001 0.125 0 4.418-3.582 8.001-8.001 8.001-0.044 0-0.088-0-0.132-0.001-4.358-0.070-7.87-3.625-7.87-8 0-0.044 0-0.088 0.001-0.132v-26.306c-0.646 0.873-1.132 1.876-1.813 2.719-11.339 14.028-27.94 23.594-47.125 23.594h-2.406c-19.191 0-35.031-9.79-45.25-23.938s-15.406-32.538-15.406-51.469v-41.218c0-18.931 5.188-37.29 15.406-51.438s26.059-23.938 45.25-23.938h2.406c19.185 0 35.786 9.565 47.125 23.594 0.83 1.027 1.441 2.238 2.219 3.313 1.019-18.649 7.158-33.192 16.875-42.875 10.62-10.583 24.668-15.384 38.344-16.031 17.835-0.844 33.014 8.885 41.75 21.688 0.008 0.012 0.023 0.019 0.031 0.031 0.69 0.58 1.272 1.262 1.73 2.026 19.129 29.361 28.864 67.296 28.864 104.255 0 101.419-74.598 176-176 176zM252.656 336h2.406c13.952 0 25.807-6.708 34.656-17.656s14.281-26.13 14.281-41.75v-41.219c0-15.62-5.432-30.771-14.281-41.719s-20.704-17.656-34.656-17.656h-2.406c-13.961 0-24.46 6.484-32.281 17.313s-12.375 26.113-12.375 42.063v41.219c0 15.949 4.553 31.265 12.375 42.094s18.321 17.313 32.281 17.313z" />
<glyph unicode="&#xe61b;" glyph-name="radiobutton-dot" d="M255.981 409.599c84.863 0 153.619-68.793 153.619-153.618s-68.755-153.581-153.619-153.581c-84.825 0-153.581 68.755-153.581 153.581s68.755 153.619 153.581 153.619z" />
<glyph unicode="&#xe61c;" glyph-name="checkbox-check" d="M0 281.601l205.002-204.8 306.998 307.2-102.4 102.4-204.8-204.8-102.4 102.4z" />
<glyph unicode="&#xe61d;" glyph-name="arrow-down" horiz-adv-x="314" d="M307.403 332.8l-153.714-154.311-153.689 154.312h307.403z" />
<glyph unicode="&#xe61e;" glyph-name="menu" d="M76.8 460.784v-102.39h102.413v102.39h-102.413zM76.8 307.187v-102.39h102.413v102.39h-102.413zM76.8 153.59v-102.39h102.413v102.39h-102.413z" />
<glyph unicode="&#xe61f;" glyph-name="message-flag" d="M255.029 460.748c-3.377-0.356-6.513-2.5-8.070-5.517l-62.5-121.154-134.571-21.924c-3.71-0.605-6.975-3.407-8.136-6.983s-0.163-7.761 2.484-10.429l95.918-96.879-20.748-134.754c-0.573-3.716 1.082-7.69 4.124-9.899s7.333-2.555 10.69-0.861l121.781 61.278 121.749-61.356c3.355-1.693 7.643-1.349 10.685 0.859s4.699 6.176 4.13 9.891l-20.642 134.759 95.976 96.831c2.641 2.669 3.633 6.851 2.473 10.421s-4.421 6.371-8.125 6.978l-134.556 22.014-62.426 121.202c-1.887 3.663-6.138 5.957-10.234 5.524z" />
<glyph unicode="&#xe620;" glyph-name="importance" d="M136.756 153.543h-17.26l-39.971 221.285c-1.817 13.934-2.725 24.319-2.725 31.155 0 16.563 5.072 29.84 15.216 39.831 10.144 9.99 22.332 14.986 36.564 14.986s26.268-4.996 36.11-14.986c9.841-9.991 14.762-24.846 14.762-44.564 0-6.31-0.606-15.118-1.817-26.422zM128.1 127.904c10.643 0 19.726-3.76 27.245-11.28s11.28-16.486 11.28-26.899c0-10.644-3.76-19.726-11.28-27.245s-16.602-11.28-27.245-11.28c-10.644 0-19.725 3.76-27.245 11.28s-11.28 16.602-11.28 27.245c0 10.412 3.76 19.378 11.28 26.899s16.602 11.28 27.245 11.28z" />
<glyph unicode="&#xe621;" glyph-name="attachment-vcard" d="M453.603 76.8h-395.237c-18.087 0-32.767 14.679-32.767 32.796v292.807c0 18.087 14.679 32.797 32.767 32.797h395.237c18.118 0 32.796-14.709 32.796-32.797v-292.807c0-18.118-14.68-32.796-32.796-32.796zM248.239 186.781c-35.602 5.221-29.291 23.295-29.548 24.385 0.086 2.783 1.32 14.545 1.32 14.545s11.475 9.467 16.926 24.901c8.578 5.393 11.848 6.139 13.282 12.336 0 0 2.898 23.438-6.34 23.438 0 0-3.844-0.631-2.611 4.877 1.233 5.48 0.832 22.635 0.201 28.745-0.602 6.111 1.205 23.553-11.733 25.991-8.807 1.607-9.84-0.861-14.143-0.229-4.303 0.603-9.41 11.647-17.413 11.647l-16.611-2.639c-8.004 0-6.77-2.438-11.073-3.041s0.889 0.602-12.020-1.836c-12.939-2.439-17.5-18.906-18.102-25.016s-0.774-23.238-0.345-32.417c1.205-5.48-3.099-5.48-3.099-5.48-7.745 0.488-4.246-23.438-4.246-23.438 1.119-5.881-0.401-8.836 11.045-13.397 5.48-15.434 19.335-23.209 19.335-23.209s0.717-9.897 0.918-16.954c-1.176 0.603 3.73-17.988-31.844-23.209-35.602-5.221-42.429-16.639-49.142-23.008-6.684-6.368-6.197-35.774-6.197-35.774h229.217c0 0-1.463 29.405-8.176 35.774-6.685 6.369-14 17.786-49.601 23.008zM435.136 359.148l-127.519-0.748-0.416-25.6 128 1.315-0.064 25.032zM435.136 282.347l-127.551-0.747-0.389-26.617 128 1.315-0.060 26.048z" />
<glyph unicode="&#xe622;" glyph-name="attachment-paperclip" d="M358.171 435.2c-13.389 0-27.163-4.208-37.335-14.372l-163.602-163.486c-24.924-24.904-22.079-59.351-3.412-78.003s53.157-21.495 78.082 3.409l136.322 136.213c2.678 2.59 4.341 6.214 4.341 10.226 0 7.857-6.375 14.226-14.238 14.226-4.012 0-7.636-1.658-10.224-4.326l-136.341-136.231c-15.976-15.964-29.201-12.002-37.8-3.409s-12.579 21.822 3.397 37.785l163.602 163.471c3.462 3.458 10.148 6.052 17.209 6.052s13.733-2.594 17.195-6.052l27.264-27.243c3.461-3.458 6.057-10.139 6.057-17.195s-2.596-13.722-6.057-17.18l-218.131-217.956c-22.234-22.216-53.067-22.216-75.301 0l-13.633 13.622c-22.234 22.216-22.234 53.024 0 75.24l163.603 163.47c2.673 2.59 4.333 6.211 4.333 10.22 0 7.857-6.375 14.226-14.238 14.226-4.016 0-7.643-1.661-10.232-4.333l-163.606-163.474c-32.3-32.274-32.3-83.198 0-115.473l13.632-13.622c32.3-32.274 83.266-32.274 115.566 0l218.147 217.956c10.173 10.164 14.399 23.926 14.399 37.304s-4.226 27.14-14.399 37.304l-27.264 27.258c-10.173 10.164-23.946 14.372-37.334 14.372z" />
<glyph unicode="&#xe623;" glyph-name="attachment-ical" d="M407.161 76.8h-327.922c-15.477 0-28.039 12.561-28.039 28.065v301.725c0 15.477 12.561 28.611 28.039 28.611h23.161v-15.025c0-36.175 25.6-46.668 51.2-46.51 25.6 0.556 51.2 10.335 51.2 46.944v14.591h76.8v-15.025c0-36.175 25.6-46.099 51.2-46.51 25.6-0.014 51.2 10.335 51.2 46.944v14.591h23.161c15.503 0 28.039-13.132 28.039-28.611v-301.725c0-15.503-12.536-28.065-28.039-28.065zM332.8 128h51.2v51.2h-51.2zM332.8 204.8h51.2v51.2h-51.2zM179.2 128h51.2v51.2h-51.2zM102.4 128h51.2v51.2h-51.2zM102.4 204.8h51.2v51.2h-51.2zM153.881 332.8h-51.481l-0.128-51.2h51.481zM179.2 204.8h51.2v51.2h-51.2zM230.886 332.8h-51.277l-0.128-51.2h51.277zM307.123 332.8h-50.688l-0.128-51.2h50.688zM307.2 256h-51.2v-51.2h51.2zM307.2 179.2h-51.2v-51.2h51.2zM384.128 332.8h-51.456l-0.767-51.2h52.096zM332.8 393.594c-11.18 0-20.262 10.029-20.262 22.411v22.385c0 12.382 9.082 22.411 20.262 22.411s20.236-10.029 20.236-22.411v-22.385c0-12.382-9.056-22.411-20.236-22.411zM153.6 393.926c-11.18 0-20.236 9.978-20.236 22.283v22.308c0 12.305 9.056 22.282 20.236 22.282 11.154 0 20.21-9.977 20.21-22.282v-22.308c0-12.305-9.056-22.283-20.21-22.283z" />
<glyph unicode="&#xe624;" glyph-name="arrow-up" horiz-adv-x="307" d="M307.394 179.2l-153.71 154.281-153.684-154.281h307.394z" />
<glyph unicode="&#xe625;" glyph-name="placeholder-password" d="M358.4 281.6v51.2c0 56.949-44.548 102.4-102.4 102.4s-102.4-45.452-102.4-102.4v-51.2h-76.8v-204.8h358.4v204.8zM287.793 116.897h-63.609l13.435 62.368c-10.906 6.277-18.335 19.374-18.335 32.697 0 20.007 16.439 36.942 36.716 36.942s36.738-15.762 36.738-35.767c0-13.322-7.429-27.797-18.358-34.074zM319.516 281.6h-127.032v51.2c0 34.978 27.997 62.703 63.516 62.703 35.497 0 63.516-27.726 63.516-62.703z" />
<glyph unicode="&#xe626;" glyph-name="placeholder-login" d="M240.624 431.413c-12.493 0-10.582-3.822-17.293-4.777-6.736-0.955 1.362 0.956-18.846-2.866-20.184-3.822-27.326-29.571-28.281-39.101-0.956-9.555-1.195-36.379-0.573-50.686 1.935-8.575-4.801-8.575-4.801-8.575-12.087 0.764-6.641-36.641-6.641-36.641 1.72-9.22-0.645-13.83 17.269-20.972 8.551-24.101 30.263-36.283 30.263-36.283s1.075-15.478 1.409-26.49c-1.815 0.908 5.828-28.161-49.827-36.307-55.63-8.145-66.308-26.036-76.793-35.996s-9.698-55.918-9.698-55.918h358.386c0 0-2.269 45.957-12.779 55.918-10.486 9.961-21.904 27.851-77.558 35.996s-45.789 36.426-46.171 38.146c0.096 4.324 2.031 22.74 2.031 22.74s17.938 14.81 26.466 38.935c13.424 8.408 18.536 9.578 20.757 19.276 0 0 4.538 36.641-9.889 36.641 0 0-5.995-0.956-4.084 7.619 1.935 8.599 1.29 35.423 0.31 44.954-0.955 9.53 1.863 36.808-18.344 40.63-13.782 2.532-15.382-1.314-22.118-0.359-6.712 0.932-14.738 18.249-27.23 18.249l-25.964-4.133z" />
<glyph unicode="&#xe627;" glyph-name="placeholder-email" d="M431.557 76.8h-352.929c0 0-27.427 0-27.427 30.185v206.033l87.119-76.993-57.594-117.862 73.329 103.957c0 0 36.447-35.748 57.133-50.528 13.979-9.988 27.633-25.373 44.814-25.462 16.847-0.079 30.447 14.781 44.199 24.512 21.063 14.904 57.926 51.346 57.926 51.346l74.019-104.247-55.597 120.581 84.254 74.696v-206.983c0 0-2.733-29.235-29.244-29.235zM227.555 177.793l-175.716 150.633c0 0-1.177 29.974 26.354 29.974h355.178c0 0 27.428-0.313 27.428-30.448l-175.652-150.159c-22.133-18.921-36.019-18.494-57.593 0z" />
<glyph unicode="&#xe628;" glyph-name="search-magnifier" d="M294.216 397.815c-56.583 0-102.626-46.059-102.626-102.626 0-25.59 9.486-48.969 25.052-66.97l-85.284-87.43c-1.458-1.447-2.361-3.452-2.361-5.668 0-4.41 3.575-7.986 7.986-7.986 2.284 0 4.344 0.959 5.799 2.497l85.188 87.334c17.895-15.179 41.002-24.402 66.246-24.402 56.57 0 102.601 46.072 102.601 102.626 0 56.568-46.033 102.626-102.601 102.626zM294.216 381.846c47.933 0 86.632-38.724 86.632-86.657 0-47.916-38.7-86.657-86.632-86.657-47.948 0-86.657 38.74-86.657 86.657 0 47.935 38.707 86.657 86.657 86.657z" />
<glyph unicode="&#xe629;" glyph-name="group-shared-all" d="M256.003 440.645c-101.892 0-184.675-82.758-184.675-184.65s82.783-184.675 184.675-184.675c101.892 0 184.675 82.783 184.675 184.675s-82.783 184.65-184.675 184.65zM256.003 424.645c93.244 0 168.675-75.406 168.675-168.65s-75.431-168.675-168.675-168.675c-93.244 0-168.675 75.431-168.675 168.675s75.431 168.65 168.675 168.65zM256.003 366.645c-61.012 0-110.675-49.621-110.675-110.65 0-61.014 49.661-110.675 110.675-110.675s110.675 49.661 110.675 110.675c0 61.029-49.662 110.65-110.675 110.65zM256.003 350.645c52.363 0 94.675-42.271 94.675-94.65 0-52.362-42.313-94.675-94.675-94.675s-94.675 42.313-94.675 94.675c0 52.379 42.312 94.65 94.675 94.65z" />
<glyph unicode="&#xe62a;" glyph-name="share" d="M256 435.2c-98.969 0-179.2-80.231-179.2-179.2s80.231-179.2 179.2-179.2c98.969 0 179.2 80.231 179.2 179.2s-80.231 179.2-179.2 179.2zM256 383.471c70.394 0 127.447-57.081 127.447-127.475s-57.053-127.447-127.447-127.447c-70.394 0-127.475 57.053-127.475 127.447s57.081 127.475 127.475 127.475z" />
<glyph unicode="&#xe62b;" glyph-name="unshare" d="M256.010 435.19c-98.969 0-179.2-80.231-179.2-179.2s80.231-179.2 179.2-179.2c89.369 0 163.432 65.437 176.964 151l-7.993-7.993-41.656 41.634c0.075-1.802 0.113-3.62 0.113-5.441 0-70.394-57.036-127.429-127.429-127.429s-127.474 57.036-127.474 127.429c0 70.394 57.081 127.474 127.474 127.474 1.82 0 3.617-0.037 5.418-0.113l-16.007 16.007 34.273 34.273c-7.757 1.026-15.647 1.558-23.684 1.558zM317.443 435.19l-35.831-35.831 53.757-53.758-53.781-53.757 35.853-35.854 53.757 53.757 53.757-53.757 35.853 35.853-53.781 53.757 53.757 53.757-35.831 35.831-53.757-53.757-53.757 53.757z" />
<glyph unicode="&#xe62c;" glyph-name="get-link" d="M361.75 407.375c-16.156 0.491-32.338-5.017-44.469-17.156l-55.5-55.469c-1.445-1.448-2.337-3.448-2.337-5.655 0-4.424 3.587-8.010 8.010-8.010 2.2 0 4.192 0.887 5.64 2.322l55.5 55.499c17.499 17.512 48.27 16.012 66.094-1.813 17.805-17.805 19.279-48.565 1.781-66.063l-75.656-75.656c-17.483-17.497-46.962-15.118-65 2.906-1.471 1.637-3.595 2.663-5.959 2.663-4.418 0-8.001-3.582-8.001-8.001 0-2.372 1.032-4.502 2.672-5.967 23.762-23.743 63.356-27.176 87.601-2.913l75.656 75.656c24.262 24.262 22.141 64.765-1.781 88.688-11.968 11.968-28.094 18.478-44.25 18.969zM256.344 301.969c-16.157 0.485-32.363-5.060-44.5-17.188l-75.625-75.594c-24.255-24.255-22.131-64.791 1.813-88.719 23.936-23.936 64.445-26.069 88.719-1.813l57.656 57.656c1.517 1.459 2.459 3.505 2.459 5.771 0 4.418-3.582 8.001-8.001 8.001-2.267 0-4.313-0.942-5.769-2.457l-57.659-57.659c-17.517-17.504-48.27-16.012-66.094 1.813-17.831 17.803-19.311 48.595-1.813 66.094l75.625 75.594c17.517 17.504 48.304 16.040 66.125-1.781 1.459-1.517 3.505-2.459 5.772-2.459 4.418 0 8.001 3.582 8.001 8.001 0 2.266-0.942 4.313-2.457 5.769-11.972 11.972-28.096 18.487-44.252 18.971z" />
<glyph unicode="&#xe62d;" glyph-name="edit-file" d="M352.098 412.539c-10.411-0.784-20.964-5.529-29.15-13.725l-185.725-185.75c-0.031-0.038-0.073-0.090-0.115-0.142-0.377-0.339-0.705-0.685-1-1.057-0.167-0.207-0.323-0.421-0.469-0.642-0.049-0.074-0.097-0.147-0.143-0.221-0.569-0.877-0.97-1.87-1.161-2.935l-25.832-83.923c-0.022-0.065-0.055-0.189-0.085-0.313-0.216-0.729-0.335-1.505-0.335-2.308 0-4.418 3.582-8.001 8.001-8.001 1.513 0 2.927 0.42 4.133 1.149l83.29 25.631c2.192 0.654 3.953 2.161 4.929 4.128l184.396 184.446c0.005 0 0.010 0 0.016 0s0.011 0 0.017 0c16.359 16.379 18.993 42.155 3.674 57.475l-16.075 16.075h-0.032c-7.649 7.648-17.921 10.831-28.325 10.050zM352.822 396.563c6.303 0.528 12.238-1.328 16.3-5.4l16.1-16.074c8.119-8.142 7.452-23.685-3.7-34.851l-17.425-17.424-47.075 47.099c-0.058 0.060-0.116 0.117-0.174 0.174l17.423 17.428c5.574 5.581 12.247 8.515 18.55 9.049zM305.522 358.763c0.058-0.060 0.116-0.118 0.174-0.174l47.102-47.101-154.3-154.25-47.075 47.075c-0.052 0.049-0.109 0.101-0.167 0.152l154.266 154.306zM144.923 188.163l37.575-37.549-54.275-16.675 16.7 54.224z" />
<glyph unicode="&#xe62e;" glyph-name="create-folder" d="M375.873 424.111c-4.365-0.070-7.876-3.625-7.876-8 0-0.044 0-0.088 0.001-0.132v-63.993h-64c-0.034 0-0.074 0.001-0.113 0.001-4.418 0-8.001-3.582-8.001-8.001s3.582-8.001 8.001-8.001c0.040 0 0.079 0 0.119 0.001h63.994v-64c-0-0.034-0.001-0.073-0.001-0.113 0-4.418 3.582-8.001 8.001-8.001s8.001 3.582 8.001 8.001c0 0.040-0 0.079-0.001 0.119v63.994h64c0.034-0 0.074-0.001 0.113-0.001 4.418 0 8.001 3.582 8.001 8.001s-3.582 8.001-8.001 8.001c-0.040 0-0.079-0-0.119-0.001h-63.994v64c0 0.037 0.001 0.081 0.001 0.125 0 4.418-3.582 8.001-8.001 8.001-0.044 0-0.088-0-0.132-0.001zM134.998 383.986c-20.556 0-39-14.741-39-36.2v-91.8c0-0.019-0.001-0.043-0.001-0.067 0-0.451 0.037-0.894 0.109-1.325l-0.135-134.904c-0.004-0.086-0.005-0.187-0.005-0.288s0.002-0.202 0.005-0.303c-0.001 0.014-0.001 0.014-0.001 0.014v-1.974c-0.001-0.036-0.001-0.079-0.001-0.121 0-1.207 0.267-2.352 0.746-3.378 2.469-10.017 11.582-17.602 22.355-17.602 1.894 0 3.708 0.32 5.475 0.752 0.993-0.475 2.157-0.752 3.387-0.752 0.022 0 0.044 0 0.067 0h191.996c0.002 0 0.005 0 0.008 0 0.563 0 1.113 0.058 1.644 0.169 17.941 0.631 31.68 11.82 39.623 27.942 0.231 0.356 0.449 0.766 0.63 1.195l0.147 0.356 36.075 88.951c0.402 0.923 0.637 1.998 0.637 3.127 0 4.418-3.582 8.001-8.001 8.001-0.083 0-0.166-0.002-0.248-0.004-3.271-0.098-6.048-2.159-7.194-5.045l-36.044-88.93c-6.45-13.571-14.114-19.75-27.275-19.75h-178.925c0.006 0.014 0.024 0.084 0.041 0.154l56.561 159.829h58.325c0.034-0 0.074-0.001 0.113-0.001 4.418 0 8.001 3.582 8.001 8.001s-3.582 8.001-8.001 8.001c-0.040 0-0.079-0-0.119-0.001h-62.594c-0.489 0.106-1.052 0.168-1.629 0.168-0.122 0-0.243-0.003-0.363-0.008-1.734-0.14-3.303-0.826-4.544-1.884 0.004 0.010-0.006 0.010-0.014 0.010s-0.018 0-0.027 0c-0.143-0.125-0.273-0.244-0.399-0.369-1.206-1.127-2.061-2.618-2.391-4.298l-57.758-163.351c-0.13-0.288-0.258-0.639-0.362-1-0.874-2.997-3.543-5.181-6.838-5.181-4.016 0-7.1 3.070-7.1 7.101l0.128 142.899c0.001 0.033 0.001 0.072 0.001 0.111 0 0.452-0.037 0.896-0.109 1.327l0.007 84.353c0 12.813 9.349 20.2 23 20.2h50c7.007 0 13.004-2.099 16.95-5.226s6.050-6.918 6.050-12.274c0-12.368 5.601-20.963 11.45-25.226s12.075-4.901 12.075-4.901c0.244-0.026 0.526-0.041 0.813-0.041 4.421 0 8.005 3.584 8.005 8.005 0 4.135-3.135 7.537-7.157 7.96-0.035 0.003-1.99 0.211-4.31 1.902-2.319 1.69-4.875 4.187-4.875 12.301 0 10.131-4.827 19.063-12.1 24.824s-16.771 8.675-26.9 8.675h-50z" />
<glyph unicode="&#xe62f;" glyph-name="complete-thread" d="M106.242 435.2c-16.245 0-29.442-13.151-29.442-29.419v-299.517c0-16.269 13.197-29.464 29.442-29.464h187.571l-59.267 59.312c-20.355 20.355-16.923 56.798 7.699 81.393 24.594 24.622 61.061 28.077 81.414 7.721l16.233-16.233 44.117 44.117v94.736l-88.775 87.354zM278.301 419.666c1.49-0.034 3.526-1.133 6.3-3.906l70.193-70.217c0 0 15.839-11.767-5.464-11.312h-61.096c0 0-13.591 0-13.591 14.043v57.98c0 0-1.664 13.531 3.656 13.411zM341.224 161.223l92.673 92.673 41.882-41.905-135.149-135.173-72.289 72.948c-11.736 11.736-11.737 30.763 0 42.5 11.734 11.736 30.761 11.735 42.497-0z" />
<glyph unicode="&#xe630;" glyph-name="ask" d="M382.288 76.8h-252.577c-15.075 0-27.311 12.236-27.311 27.334v303.755c0 15.099 12.237 27.31 27.311 27.31h197.503l82.385-81.097v-249.969c0-15.099-12.237-27.334-27.311-27.334zM230.4 133.438c0-1.526 0.572-2.815 1.741-3.864 1.121-1.050 2.481-1.574 4.007-1.574h25.784c1.526 0 2.863 0.524 4.007 1.574 1.146 1.050 1.717 2.337 1.717 3.864v32.391c0 1.526-0.572 2.862-1.717 4.007-1.144 1.145-2.481 1.717-4.007 1.717h-25.784c-1.526 0-2.886-0.572-4.007-1.717-1.168-1.145-1.741-2.481-1.741-4.007zM301.908 333.747c-5.057 3.435-11.281 5.868-18.627 7.322-7.347 1.431-15.624 2.147-24.782 2.147-7.467 0-15.099-0.477-22.922-1.431-7.848-0.978-14.813-2.218-20.919-3.745-2.505-0.572-3.983-1.479-4.46-2.719s-0.715-3.006-0.715-5.295v-17.769c0-4.198 1.622-6.297 4.889-6.297h1.145c6.297 0.763 13.262 1.479 20.918 2.146 7.633 0.668 14.979 1.002 22.064 1.002 5.914 0 10.16-0.907 12.736-2.719 2.601-1.813 3.889-4.436 3.889-7.895v-4.579c0-4.579-0.549-8.873-1.599-12.904-1.050-4.007-3.291-8.014-6.726-12.022l-18.342-21.204c-3.434-4.007-6.201-7.609-8.299-10.757s-3.817-6.297-5.152-9.445c-1.359-3.149-2.267-6.464-2.72-9.899-0.501-3.435-0.739-7.442-0.739-12.022v-10.901c0-3.625 1.813-5.438 5.463-5.438h23.78c1.526 0 2.862 0.524 4.007 1.574s1.717 2.337 1.717 3.864v10.901c0 4.579 1.24 8.491 3.721 11.735s5.652 7.18 9.469 11.759l17.483 20.632c4.77 5.724 8.538 10.733 11.306 15.050 2.766 4.293 4.841 8.158 6.178 11.592s2.147 6.56 2.433 9.326c0.286 2.767 0.43 5.486 0.43 8.158v4.579c0 8.611-1.337 15.766-4.007 21.514-2.696 5.725-6.56 10.304-11.616 13.739zM389.539 350.668l-66.166 66.189c-11.974 11.95-9.397-8.968-9.397-8.968v-54.645c0-13.238 12.809-13.238 12.809-13.238h57.627c20.059-0.429 5.127 10.662 5.127 10.662z" />
<glyph unicode="&#xe631;" glyph-name="wait" d="M130.845 76.8h-79.644v24.946l49.401 51.568h-49.401v25.886h79.644v-25.6l-44.959-51.2h44.959zM265.841 128h-119.466v33.153l74.101 86.314h-74.101v34.134h119.466v-33.705l-67.439-85.762h67.439zM460.8 204.8h-179.2v49.729l111.152 129.471h-111.152v51.2h179.2v-50.556l-101.159-128.644h101.159z" />
<glyph unicode="&#xe632;" glyph-name="action-share-with-all" d="M256.003 440.645c-101.892 0-184.675-82.758-184.675-184.65s82.783-184.675 184.675-184.675c101.892 0 184.675 82.783 184.675 184.675s-82.783 184.65-184.675 184.65zM256.003 424.645c93.244 0 168.675-75.406 168.675-168.65s-75.431-168.675-168.675-168.675c-93.244 0-168.675 75.431-168.675 168.675s75.431 168.65 168.675 168.65zM256.003 366.645c-61.012 0-110.675-49.621-110.675-110.65 0-61.014 49.661-110.675 110.675-110.675s110.675 49.661 110.675 110.675c0 61.029-49.662 110.65-110.675 110.65zM256.003 350.645c52.363 0 94.675-42.271 94.675-94.65 0-52.362-42.313-94.675-94.675-94.675s-94.675 42.313-94.675 94.675c0 52.379 42.312 94.65 94.675 94.65z" />
<glyph unicode="&#xe633;" glyph-name="action-unshare-with-all" d="M317.426 460.807l-35.831-35.831 53.758-53.758-53.781-53.757 35.853-35.854 53.757 53.758 53.758-53.758 35.853 35.854-53.78 53.757 53.757 53.758-35.83 35.831-53.758-53.758-53.757 53.758zM255.616 435.2c-98.793-0.207-178.816-80.358-178.816-179.2 0-98.969 80.23-179.2 179.2-179.2 98.849 0 179.005 80.036 179.2 178.839l-10.25-10.228-46.713 46.714c3.377-11.452 5.215-23.578 5.215-36.125 0-70.394-57.058-127.452-127.452-127.452s-127.475 57.058-127.475 127.452c0 70.394 57.081 127.474 127.475 127.474 12.541 0 24.654-1.816 36.102-5.193l-46.714 46.714 10.228 10.205zM256 358.413c-56.554 0-102.413-45.859-102.413-102.413s45.858-102.39 102.413-102.39c56.553 0 102.39 45.837 102.39 102.39 0 9.262-1.24 18.244-3.546 26.777l-19.303-19.281-10.883-11.514-15.714 15.714c0.828-3.767 1.264-7.68 1.264-11.695 0-29.95-24.26-54.209-54.209-54.209s-54.231 24.26-54.231 54.209c0 29.95 24.282 54.232 54.231 54.232 4.001 0 7.896-0.419 11.65-1.242l-15.082 15.060 10.928 11.537 19.304 19.282c-8.546 2.313-17.522 3.545-26.8 3.545z" />
<glyph unicode="&#xe634;" glyph-name="group-shared" d="M256 435.2c-98.969 0-179.2-80.231-179.2-179.2s80.231-179.2 179.2-179.2c98.969 0 179.2 80.231 179.2 179.2s-80.231 179.2-179.2 179.2zM256 383.471c70.394 0 127.447-57.081 127.447-127.475s-57.053-127.447-127.447-127.447c-70.394 0-127.475 57.053-127.475 127.447s57.081 127.475 127.475 127.475z" />
<glyph unicode="&#xe635;" glyph-name="settings-outlook-sync" d="M322.548 448.45c-52.759 0-95.925-43.166-95.925-95.925 0-34.773 15.588-62.351 39.57-80.337h-41.968c-10.792 0-10.792-15.588 0-15.588h70.745c5.995-1.199 9.592 3.597 8.394 9.592v69.546c0 4.796-3.597 8.393-7.195 8.393-4.796 0-8.394-3.597-8.394-8.393v-58.755c-27.579 15.588-45.565 40.769-45.565 75.541 0 44.365 35.972 80.337 80.338 80.337 10.79 0 10.79 16.787 0 15.588zM359.718 448.45c0 0 0 0-1.199 0-3.597-1.2-7.195-4.796-7.195-9.593v-70.744c0-10.791 16.787-10.791 16.787 0v57.555c25.18-20.384 35.972-50.361 35.972-73.143 0-40.768-29.976-74.342-69.546-80.337-9.592-1.199-8.394-17.986 2.398-15.588 46.764 5.995 82.736 46.764 82.736 95.925 0 25.18-10.791 56.356-35.972 79.138h47.963c10.791 0 10.791 16.787 0 16.787h-70.745c0 0-1.199 0-1.199 0zM199.044 424.469c-1.199 0-2.398 0-2.398-1.2l-127.1-40.768c-3.597 0-5.995-3.597-5.995-7.194v-236.215c0-2.398 2.398-5.995 5.995-7.195l176.262-59.954c4.797-2.398 9.593 1.199 9.593 7.195v64.75h104.317c4.796 0 8.394 3.597 8.394 8.394v56.355c0 3.597-3.597 7.195-8.394 7.195s-8.394-3.597-8.394-7.195v-47.962h-95.924v47.962c0 10.791-15.588 10.791-15.588 0v-118.707l-159.476 55.157v224.224l121.105 39.569c8.393 2.398 5.995 15.588-2.398 15.588zM160.674 318.951c-13.19 0-23.981-8.394-29.976-20.384-5.995-10.791-8.394-25.18-8.394-39.57 0-15.588 2.398-29.977 8.394-40.769 5.995-11.99 16.787-20.384 29.976-20.384s23.982 8.394 29.977 20.384c5.995 10.791 8.393 25.18 8.393 40.769 0 14.389-2.398 28.777-8.393 39.57-5.995 11.99-16.787 20.384-29.976 20.384zM160.674 302.164c7.195 0 11.99-2.398 15.588-10.791 4.797-7.195 7.195-19.185 7.195-32.375 0-14.389-2.398-26.38-7.195-33.574-3.597-7.195-8.393-10.791-15.588-10.791-8.393 0-11.99 3.597-16.786 10.791-3.597 7.195-5.995 19.185-5.995 33.574 0 13.19 2.398 25.18 5.995 32.375 4.797 8.393 8.393 10.791 16.786 10.791z" />
<glyph unicode="&#xe636;" glyph-name="settings-mobile-sync" d="M307.344 449c-53.476 0-97-43.524-97-97 0-33.89 15.943-61.466 40.094-80h-42.438c-0.034 0-0.073 0.001-0.113 0.001-4.418 0-8.001-3.582-8.001-8.001s3.582-8.001 8.001-8.001c0.040 0 0.079 0 0.119 0.001h71.181c0.298-0.039 0.642-0.061 0.991-0.061 4.418 0 8.001 3.582 8.001 8.001 0 0.597-0.065 1.179-0.19 1.739l0.010 70.322c0 0.037 0.001 0.081 0.001 0.125 0 4.418-3.582 8.001-8.001 8.001-0.044 0-0.088-0-0.132-0.001-4.358-0.070-7.87-3.625-7.87-8 0-0.044 0-0.088 0.001-0.132v-59.118c-27.536 15.385-45.656 40.964-45.656 75.125 0 44.827 36.173 81 81 81 0.034-0 0.073-0.001 0.113-0.001 4.418 0 8.001 3.582 8.001 8.001s-3.582 8.001-8.001 8.001c-0.039 0-0.079-0-0.119-0.001zM344.156 448.063c-0.036 0-0.077 0.001-0.118 0.001-0.255 0-0.507-0.012-0.757-0.035-4.125-0.315-7.378-3.766-7.378-7.976 0-0.438 0.035-0.867 0.103-1.285l-0.006-70.798c-0-0.034-0.001-0.074-0.001-0.113 0-4.418 3.582-8.001 8.001-8.001s8.001 3.582 8.001 8.001c0 0.040-0 0.079-0.001 0.119v57.025c25.15-19.839 36.344-49.661 36.344-73.031 0-40.816-30.034-74.403-69.156-80.125-3.897-0.584-6.85-3.908-6.85-7.922 0-4.422 3.584-8.006 8.006-8.006 0.408 0 0.809 0.031 1.201 0.089 46.817 6.849 82.799 47.275 82.799 95.964 0 26.193-11.405 57.272-36.188 80h47.844c0.034-0 0.074-0.001 0.113-0.001 4.418 0 8.001 3.582 8.001 8.001s-3.582 8.001-8.001 8.001c-0.040 0-0.079-0.001-0.119-0.001h-70.9c-0.27 0.046-0.593 0.080-0.921 0.094zM174.5 447.625c-25.927 0-46.25-21.914-46.25-45.875v-294.625c0-23.355 18.41-42.75 41.313-42.75h140.875c22.867 0 41.313 19.387 41.313 42.75v108.875c0 0.034 0.001 0.074 0.001 0.113 0 4.418-3.582 8.001-8.001 8.001s-8.001-3.582-8.001-8.001c0-0.040 0-0.079 0.001-0.119v-39.994h-191.5v225.75c0 14.536 13.681 29.875 30.25 29.875 0.034-0 0.073-0.001 0.113-0.001 4.418 0 8.001 3.582 8.001 8.001s-3.582 8.001-8.001 8.001c-0.040 0-0.079-0-0.119-0.001zM144.25 160h191.5v-52.875c0-15.068-11.476-26.75-25.313-26.75h-140.875c-13.897 0-25.313 11.673-25.313 26.75v52.875zM240.844 145.656c-14.177 0-25.844-11.668-25.844-25.844s11.676-25.813 25.844-25.813c14.159 0 25.844 11.627 25.844 25.813s-11.677 25.844-25.844 25.844zM240.844 129.656c5.512 0 9.844-4.317 9.844-9.844s-4.322-9.813-9.844-9.813c-5.544 0-9.844 4.277-9.844 9.813s4.308 9.844 9.844 9.844z" />
<glyph unicode="&#xe637;" glyph-name="settings-helpdesk" d="M169.067 312.956c-34.773 0-63.55-25.181-70.745-57.556-1.198 0-1.198 1.199-2.398 1.199h-15.588c-9.593 0-16.787-7.195-16.787-16.787 0-8.394 7.194-15.588 16.787-15.588h15.588c1.2 0 1.2 0 2.398 0 7.195-32.375 35.972-56.354 70.745-56.354 40.769 0 73.144 32.373 73.144 71.942 0 2.398-1.199 3.597-1.199 4.796 1.199 1.199 1.199 2.398 1.199 3.597 0 7.195 5.995 13.19 14.389 13.19 7.195 0 13.19-5.995 13.19-13.19 0-1.199 0-2.398 1.199-3.597 0-1.199-1.199-2.398-1.199-3.597 0-40.769 33.574-73.142 73.142-73.142 34.773 0 63.551 23.98 70.745 56.355 1.199 0 1.199 0 2.398 0h15.588c8.394 0 15.588 7.195 15.588 15.588 0 9.592-7.195 16.787-15.588 16.787h-15.588c-1.199 0-1.199-1.199-2.398-1.199-7.195 32.375-35.972 57.555-70.745 57.555-29.975 0-55.156-17.986-65.947-43.166-5.995 4.797-13.19 7.195-20.384 7.195-8.393 0-15.588-2.398-20.384-7.195-11.99 25.18-37.171 43.166-67.148 43.166zM169.067 297.368c31.176 0 56.356-25.18 56.356-57.555 0-31.176-25.18-56.355-56.356-56.355s-56.356 25.179-56.356 56.355c0 32.375 25.18 57.555 56.356 57.555zM342.931 297.368c31.176 0 56.356-25.18 56.356-56.356 0 0 0-1.199 0-1.199s0 0 0 0c0-31.176-25.18-55.156-56.356-55.156-31.174 0-56.354 25.179-56.354 56.354s25.18 56.356 56.355 56.356z" />
<glyph unicode="&#xe638;" glyph-name="settings-email-accounts" d="M104.375 400.25c-22.338 0-40.25-18.957-40.25-41.718v-6.344c-0.048-0.328-0.075-0.708-0.075-1.093s0.028-0.765 0.080-1.137l-0.005-196.332c0-22.749 17.948-41.656 40.281-41.656h303.25c22.334 0 40.219 18.921 40.219 41.656v196.563c0.034 0.276 0.053 0.597 0.053 0.922s-0.019 0.645-0.057 0.96l0.003 6.462c0 22.757-17.911 41.719-40.25 41.719h-303.25zM104.375 384.25h303.25c13.31 0 24.25-11.227 24.25-25.718v-3.344l-175.875-121.156-175.875 121.156v3.344c0 14.486 10.941 25.719 24.25 25.719zM80.125 335.782l169.094-116.469c1.475-1.964 3.798-3.221 6.417-3.221 0.073 0 0.147 0.001 0.22 0.003 0.154-0.012 0.345-0.019 0.538-0.019 2.639 0 4.978 1.277 6.436 3.247l169.046 116.459v-182.156c0-14.481-10.904-25.656-24.219-25.656h-303.25c-13.314 0-24.281 11.19-24.281 25.656v182.156z" />
<glyph unicode="&#xe639;" glyph-name="settings-common" d="M239.813 448.45c-17.986 0-32.375-16.787-32.375-37.171v-20.384c-14.389-5.995-31.176-15.588-45.565-28.777l-19.185 11.99c-8.393 4.796-16.787 7.195-25.18 5.995-8.394 0-16.787-4.796-21.583-11.99v0l-15.588-26.379c-9.593-15.588-2.398-35.972 14.389-46.764v0l25.18-15.588c-1.198-5.995-2.398-13.19-2.398-20.384 0-8.394 2.398-16.787 3.597-25.18l-26.379-16.787c-16.787-9.592-23.981-29.975-14.389-46.762v0l16.787-25.18c4.796-7.195 13.189-11.99 21.583-13.19 8.394 0 16.787 2.398 25.18 7.195v0l21.583 14.389c13.19-10.791 28.778-19.185 41.968-25.18v-27.579c0-19.185 14.389-35.972 32.375-35.972h31.176c17.986 0 32.375 15.588 32.375 35.972v26.38c14.389 5.995 28.776 13.19 41.966 23.981l20.384-11.99c8.394-5.995 16.787-7.195 25.18-7.195 8.394 1.199 16.787 5.995 21.584 13.19l16.787 25.18c9.592 15.588 2.398 37.169-14.389 46.762l-19.185 11.99c2.398 9.592 3.597 19.185 3.597 29.977 0 8.393-1.199 16.787-2.398 25.18l17.986 10.792c16.787 10.791 23.981 31.176 14.389 46.764l-16.787 26.379c-4.796 7.194-13.19 11.99-21.584 11.99-8.394 1.199-16.787-1.2-25.18-5.995l-16.787-9.593c-14.389 11.99-31.174 20.384-45.563 26.38v20.384c0 20.384-14.389 37.171-32.375 37.171h-31.176zM239.813 431.663h31.176c8.394 0 16.787-8.394 16.787-20.384v-25.18c0-3.597 2.398-5.995 4.796-7.195 15.588-5.995 38.368-16.787 51.558-29.976 2.398-2.398 5.995-2.398 9.592-1.199l20.384 13.19c5.995 2.398 11.99 4.797 15.588 3.597 4.796 0 7.195-1.199 9.592-4.796v0l15.588-26.379c4.796-7.195 2.398-17.986-8.394-23.982l-22.782-14.389c-2.398-1.199-3.597-4.796-3.597-8.393 2.398-8.394 3.597-17.986 3.597-27.579 0-10.791-1.199-21.584-3.597-31.176-1.199-3.597 0-7.195 2.398-9.592l23.981-14.389c10.791-5.995 13.19-17.985 8.394-23.98l-15.588-26.38c-2.398-3.597-5.995-4.796-9.592-5.995-4.796 0-10.791 1.199-15.588 4.796v0l-23.981 14.389c-2.398 2.398-7.195 1.199-9.592-1.199-13.19-10.791-32.373-20.384-47.962-26.38-2.398 0-4.796-3.597-4.796-7.195v-31.176c0-11.99-8.394-20.384-16.787-20.384h-31.176c-8.393 0-15.588 8.394-15.588 20.384v31.176c0 3.597-2.398 7.195-5.995 8.394-14.389 4.796-33.574 15.588-46.764 28.777-2.398 2.398-7.195 2.398-10.792 0l-25.18-16.787c-5.995-3.597-10.791-4.796-15.588-4.796-4.796 1.2-7.195 2.398-9.593 5.995l-15.588 26.38c-4.796 5.995-1.2 17.985 8.394 23.98l31.175 19.185c2.398 1.199 3.597 4.796 3.597 8.394-2.398 8.394-3.597 17.986-3.597 27.579 0 8.393 1.2 15.588 2.398 23.981 0 2.398-1.2 5.995-3.597 7.195l-29.977 19.185c-10.791 5.995-13.189 16.787-8.394 23.981v0l15.588 26.379c2.398 3.597 4.796 4.797 8.394 4.797 4.796 1.199 9.592 0 15.587-3.597l23.982-15.588c2.398-2.398 7.194-1.199 9.592 1.199 14.389 14.388 35.972 25.18 51.56 32.374 2.398 1.2 4.797 3.597 4.797 7.195v25.18c0 11.99 8.393 20.384 15.588 20.384zM258.998 316.553c-31.176 0-57.555-26.38-57.555-57.555s26.38-56.356 57.555-56.356c31.176 0 56.356 25.18 56.356 56.356s-25.18 57.555-56.356 57.555zM258.998 299.766c22.782 0 40.769-17.986 40.769-40.768s-17.986-40.769-40.769-40.769c-22.782 0-40.769 17.986-40.769 40.769s17.986 40.769 40.769 40.769z" />
<glyph unicode="&#xe63a;" glyph-name="settings-calendar" d="M200.243 424.469c-4.797 0-8.393-3.597-8.393-8.394v-47.962c0-10.791 15.588-10.791 15.588 0v47.963c0 4.796-3.597 8.393-7.195 8.393zM311.757 424.469c-4.796 0-8.394-3.597-8.394-8.394v-47.962c0-10.791 16.787-10.791 16.787 0v47.963c0 4.796-3.597 8.393-8.394 8.393zM151.082 400.487c-21.583 0-39.569-19.185-39.569-40.768v-223.025c0-21.584 17.986-40.769 40.768-40.769h207.437c22.782 0 39.57 19.185 39.57 40.769v223.025c0 21.583-16.787 40.768-39.57 40.768h-15.588c-10.791 0-10.791-16.787 0-15.588h15.588c13.19 0 23.981-11.99 23.981-25.181v-23.981h-255.4v23.981c0 13.19 10.792 25.181 22.782 25.181h16.786c10.791-1.2 10.791 15.588 0 15.588h-16.786zM232.618 400.487c-10.791 0-10.791-16.787 0-15.588h47.963c10.791-1.2 10.791 15.588 0 15.588h-47.963zM128.299 320.15h255.4v-183.456c0-13.19-10.791-25.18-23.981-25.18h-207.437c-13.19 0-23.982 11.99-23.982 25.18v183.456zM176.262 272.188c-10.791 0-10.791-15.588 0-15.588h31.176c10.791 0 10.791 15.588 0 15.588h-31.176zM239.813 272.188c-10.791 0-10.791-15.588 0-15.588h32.375c10.791 0 10.791 15.588 0 15.588h-32.375zM303.363 272.188c-10.791 0-10.791-15.588 0-15.588h32.373c10.791 0 10.791 15.588 0 15.588h-32.373zM176.262 224.224c-10.791 0-10.791-15.588 0-15.588h31.176c10.791 0 10.791 15.588 0 15.588h-31.176zM239.813 224.224c-10.791 0-10.791-15.588 0-15.588h32.375c10.791 0 10.791 15.588 0 15.588h-32.375zM303.363 224.224c-10.791 0-10.791-15.588 0-15.588h32.373c10.791 0 10.791 15.588 0 15.588h-32.373zM176.262 176.264c-10.791 0-10.791-15.588 0-15.588h31.176c10.791 0 10.791 15.588 0 15.588h-31.176zM239.813 176.264c-10.791 0-10.791-15.588 0-15.588h32.375c10.791 0 10.791 15.588 0 15.588h-32.375zM303.363 176.264c-10.791 0-10.791-15.588 0-15.588h32.373c10.791 0 10.791 15.588 0 15.588h-32.373z" />
<glyph unicode="&#xe63b;" glyph-name="misc-plus" d="M204.787 358.4v-76.809h-76.787v-76.81h76.787v-76.787h76.809v76.787h76.788v76.81h-76.788v76.81h-76.809z" />
<glyph unicode="&#xe63c;" glyph-name="logo" d="M252.987 408.906c-46.238 0.024-92.662-21.734-113.133-68.76-3.949 0.888-8.031 1.363-12.19 1.363-15.459 0-29.456-6.27-39.588-16.401-10.11-10.11-16.373-24.072-16.401-39.487-12.718-9.613-23.37-21.749-31.198-35.641-9.471-16.818-14.876-36.202-14.876-56.817 0-32.034 12.982-61.033 33.974-82.025 42.209-42.213 124.022-34.913 193.773-31.863-13.588 10.389-18.484 18.139-30.596 35.156-37.873-1.603-108.301-8.653-137.321 22.562-36.23 36.23-29.067 97.471 14.977 124.197l11.413 6.925c-16.147 25.601 23.583 57.965 48.597 23.287 26.577 118.72 192.328 96.881 179.567-19.014 112.25 4.954 101.847-133.207 26.947-154.939l0.039 0.575c-46.133-7.198-95.765-1.262-81.14 67.774l22.562 106.54h-39.2l-3.75-16.531c-8.311 13.388-21.396 20.078-39.194 20.078-15.571 0-29.512-4.813-41.834-14.397-12.322-9.631-21.808-21.957-28.501-37.020-6.691-15.060-10.039-30.321-10.039-45.889 0-14.958 3.244-27.536 9.735-37.73s14.958-17.439 25.456-21.75c10.498-4.308 21.352-5.377 32.561-3.147 11.205 2.23 21.093 7.613 29.712 16.132 15.481-66.208 61.476-77.697 120.728-70.448v0.012c49.962 5.781 80.767 41.242 91.957 82.098 16.59 60.584-9.932 133.019-81.017 138.099 0.395 68.625-60.648 107.031-122.018 107.064zM229.491 269.113c4.363 0 8.268-0.811 11.667-2.433 3.448-1.671 6.335-4.058 8.773-7.202 2.433-3.195 4.255-6.894 5.524-11.103 1.218-4.21 1.824-8.922 1.824-14.144 0-10.599-1.821-21.558-5.473-32.916-3.651-11.306-9.025-20.685-16.126-28.141-7.1-7.401-15.263-11.154-24.594-11.154-8.011 0-14.504 3.193-19.476 9.533-4.917 6.339-7.399 15.414-7.399 27.331 0 11.56 1.875 22.77 5.625 33.62 3.804 10.849 9.127 19.673 16.125 26.418 6.995 6.792 14.859 10.191 23.53 10.191z" />
<glyph unicode="&#xe63d;" glyph-name="logo-apple" d="M390.18 241.559c-0.582 58.357 47.591 86.344 49.744 87.734-27.067 39.609-69.233 45.035-84.258 45.663-35.884 3.634-70.018-21.126-88.229-21.126-18.166 0-46.268 20.589-76.029 20.048-39.112-0.582-75.176-22.742-95.316-57.771-40.637-70.515-10.406-174.978 29.201-232.166 19.354-27.993 42.432-59.434 72.731-58.311 29.179 1.164 40.213 18.881 75.49 18.881s45.192-18.881 76.072-18.301c31.399 0.583 51.292 28.529 70.512 56.608 22.224 32.476 31.375 63.917 31.916 65.531-0.697 0.318-61.228 23.507-61.834 93.211zM332.159 412.815c16.082 19.511 26.937 46.58 23.976 73.585-23.165-0.943-51.244-15.43-67.865-34.897-14.913-17.269-27.966-44.832-24.468-71.296 25.86-2.018 52.257 13.142 68.356 32.609z" />
<glyph unicode="&#xe63e;" glyph-name="misc-close" d="M79.906 440.058c-4.404-0.019-7.967-3.594-7.967-8 0-2.24 0.92-4.264 2.403-5.716l170.001-170.033-170-170c-1.516-1.458-2.458-3.504-2.458-5.769 0-4.418 3.582-8.001 8.001-8.001 2.266 0 4.311 0.942 5.767 2.455l170.002 170.002 170-170c1.45-1.454 3.456-2.354 5.672-2.354 4.424 0 8.010 3.587 8.010 8.010 0 2.208-0.894 4.207-2.339 5.656v0l-170 170 170 170.031c1.487 1.454 2.409 3.481 2.409 5.722 0 4.418-3.582 8.001-8.001 8.001-0.089 0-0.176-0.002-0.264-0.005l0.013 0c-2.16-0.062-4.096-0.971-5.498-2.404l-170.002-170.001-170 170c-1.454 1.486-3.479 2.406-5.719 2.406-0.010 0-0.022 0-0.032 0h0.001z" />
<glyph unicode="&#xe63f;" glyph-name="arrow-left" d="M256.712 102.4l-154.311 153.714 154.311 153.689v-307.403z" />
<glyph unicode="&#xe640;" glyph-name="arrow-right" d="M102.4 102.4l154.281 153.71-154.281 153.684v-307.394z" />
<glyph unicode="&#xe641;" glyph-name="misc-add" d="M256 435.2c-98.969 0-179.2-80.231-179.2-179.2s80.23-179.2 179.2-179.2c98.97 0 179.2 80.231 179.2 179.2s-80.229 179.2-179.2 179.2zM230.397 358.413h51.207v-76.81h76.81v-51.207h-76.81v-76.787h-51.207v76.787h-76.787v51.207h76.787v76.81z" />
<glyph unicode="&#xe642;" glyph-name="misc-download-as" d="M256 435.2c-98.969 0-179.2-80.231-179.2-179.2s80.23-179.2 179.2-179.2c98.97 0 179.2 80.231 179.2 179.2s-80.229 179.2-179.2 179.2zM230.419 358.413h51.184l0.007-128.010h76.8l-102.401-76.8-102.4 76.8h76.8z" />
<glyph unicode="&#xe643;" glyph-name="event-repeat-marker" d="M95.977 341.398c8.213 0 16.394-3.144 22.649-9.368l64-64c9.143-9.175 11.902-22.905 6.929-34.871-4.941-11.934-16.618-19.762-29.578-19.762h-31.983v-50.045c0-17.676 14.339-31.984 31.983-31.984h198.16c8.95 0 17.003 3.721 22.809 9.624 12.736-6.095 26.659-9.624 41.191-9.624 9.496 0 18.639 1.796 27.493 4.459-11.87-39.491-48.089-59.028-91.493-59.028h-198.16c-52.996 0-95.984 42.988-95.984 96.016v40.582h-31.984c-12.959 0-24.637 7.827-29.578 19.762-4.94 11.966-2.213 25.697 6.93 34.871l64 64c6.256 6.224 14.436 9.368 22.617 9.368zM501.856 242.27l-63.967-64c-6.256-6.224-14.436-9.368-22.616-9.368-8.213 0-16.394 3.144-22.649 9.368l-64 64c-9.143 9.175-11.87 22.905-6.93 34.871 4.941 11.934 16.618 19.762 29.579 19.762h31.983v51.745c0 17.676-14.308 32.016-31.983 32.016h-197.454c-8.95 0-16.971-3.721-22.809-9.656-12.736 6.095-26.659 9.656-41.191 9.656-9.496 0-18.638-1.828-27.492-4.491 11.901 39.491 48.12 59.028 91.493 59.028h197.454c53.028 0 95.983-42.988 95.983-95.984v-42.314h32.016c12.928 0 24.606-7.827 29.546-19.762 4.973-11.966 2.214-25.696-6.962-34.871z" />
<glyph unicode="&#xe644;" glyph-name="event-guests-marker" d="M254.494 188.186c46.135-6.815 80.207-35.339 88.952-43.661 8.744-8.353 13.568-67.724 13.568-67.724h-357.012c0 0-0.422 48.215 14.775 67.724 8.745 8.322 46.738 36.847 92.871 43.661 46.436 6.815 30.756 57.984 32.263 57.2 1.508-0.754-0.3 10.976-0.3 10.976s-30.454 32.294-30.153 61.452c0.603 29.158 0 48.245 0 48.245s3.919 69.141 51.26 69.141l36.486-12.755c42.516 0 49.451-56.387 49.451-56.387v-52.496c0 0-3.919-39.893-30.454-54.788 0 0-1.809-11.729-0.302-10.976s-7.538-52.798 38.596-59.613zM395.988 76.8c0 0-9.697 66.97-13.617 71.825s-35.279 45.682-76.288 52.135c4.825 13.358 0.603 16.192 1.207 15.831 1.205-0.633-0.301 9.106-0.301 9.106s-30.153 26.776-29.851 50.928c0.301 24.183 0 52.617 0 52.617s8.14 57.351 47.34 57.351l30.153-10.583c35.279 0 44.928-46.767 44.928-46.767v-56.145c0 0-6.935-33.078-28.947-45.41 0 0-1.81-9.74-0.603-9.106 1.507 0.633-6.031-43.783 32.264-49.421 38.295-5.669 63.322-29.309 70.558-36.214s13.569-30.676 13.569-56.145c-18.291 0-90.411 0-90.411 0z" />
<glyph unicode="&#xe645;" glyph-name="misc-remove" d="M256 435.2c-98.969 0-179.2-80.231-179.2-179.2s80.231-179.2 179.2-179.2c98.97 0 179.2 80.231 179.2 179.2s-80.229 179.2-179.2 179.2zM358.413 281.603v-51.207h-204.803v51.207z" />
<glyph unicode="&#xe646;" glyph-name="event-alarm-marker" d="M416.553 317.76c-19.779 44.018-57.15 78.487-103.12 94.468l2.347 2.508c13.669 13.651 31.567 20.477 49.464 20.477 17.916 0 35.83-6.826 49.482-20.495 26.712-26.694 27.249-69.493 1.827-96.958zM364.599 134.594c-0.376-0.376-0.771-0.681-1.147-1.057l38.661-38.644-18.113-18.094-40.381 40.399c-26.264-18.327-56.917-27.608-87.624-27.608-30.725 0-61.342 9.28-87.606 27.608l-40.399-40.399-18.094 18.094 38.644 38.644c-0.376 0.376-0.77 0.681-1.147 1.057-59.999 59.998-59.999 157.261 0 217.276 29.972 29.954 69.279 44.967 108.603 44.967 39.306 0 78.63-14.995 108.603-44.967 60.016-59.999 60.016-157.279 0-217.276zM255.996 358.447c-30.761 0-59.676-11.986-81.443-33.735-21.767-21.767-33.752-50.718-33.752-81.478 0-30.492 11.752-59.174 33.125-80.87 0.537-0.466 1.039-0.95 1.541-1.433l6.45-6.342 8.456-5.912c19.385-13.526 42.083-20.674 65.624-20.674s46.257 7.148 65.678 20.692l8.331 5.822 6.521 6.413c0.519 0.502 1.057 1.003 1.594 1.487 21.265 21.481 33.089 50.234 33.089 80.816 0 30.779-11.986 59.712-33.752 81.478-21.749 21.749-50.683 33.734-81.461 33.734zM255.996 211.219c-13.114 0-24.365 7.901-29.292 19.188h-47.512c-7.059 0-12.791 5.733-12.791 12.81s5.733 12.791 12.791 12.791h47.493c3.225 7.381 9.137 13.293 16.518 16.518v60.285c0 7.077 5.715 12.81 12.792 12.81s12.81-5.733 12.81-12.81v-60.303c11.286-4.945 19.188-16.178 19.188-29.291 0-17.664-14.296-31.997-31.996-31.997zM95.44 317.743c-25.422 27.446-24.867 70.264 1.828 96.976 13.669 13.669 31.585 20.495 49.482 20.495 17.916 0 35.813-6.826 49.482-20.477l2.168-2.597c-45.899-15.963-83.198-50.396-102.959-94.396z" />
<glyph unicode="&#xe647;" glyph-name="misc-minus" d="M25.6 179.2l460.8 0.171 0 153.428h-460.8z" />
<glyph unicode="&#xe648;" glyph-name="misc-attenders-declined" d="M256 435.2c-98.969 0-179.2-80.231-179.2-179.2s80.23-179.2 179.2-179.2c98.97 0 179.2 80.231 179.2 179.2s-80.229 179.2-179.2 179.2zM256 383.994c26.090 0 50.365-7.797 70.601-21.201l-177.393-177.394c-13.404 20.236-21.201 44.511-21.201 70.601 0 70.692 57.302 127.993 127.993 127.993zM362.792 326.578c13.399-20.233 21.224-44.493 21.224-70.578-0-70.692-57.324-127.993-128.017-127.993-26.090 0-50.343 7.797-70.579 21.2l177.371 177.371z" />
<glyph unicode="&#xe649;" glyph-name="misc-dot" d="M256 435.2c-98.969 0-179.2-80.231-179.2-179.2s80.23-179.2 179.2-179.2c98.97 0 179.2 80.231 179.2 179.2s-80.229 179.2-179.2 179.2z" />
<glyph unicode="&#xe64a;" glyph-name="remove-from-group" d="M360.344 440.001c-52.741 0-95.656-42.962-95.656-95.688 0-52.739 42.917-95.656 95.656-95.656s95.656 42.917 95.656 95.656c0 52.725-42.915 95.688-95.656 95.688zM360.344 424.001c44.091 0 79.656-35.612 79.656-79.688 0-44.092-35.563-79.656-79.656-79.656s-79.656 35.564-79.656 79.656c0 44.075 35.565 79.688 79.656 79.688zM135 383.97c-20.556 0-39-14.729-39-36.188v-91.813c0-0.014 0-0.029 0-0.045 0-0.437 0.035-0.865 0.102-1.283l-0.134-134.954c0-0.005 0-0.010 0-0.016s0-0.012 0-0.017c-0.003-0.083-0.005-0.182-0.005-0.281s0.002-0.197 0.005-0.296c-0.001 0.014-0.001-0.018-0.001-0.018v-1.969c-0.001-0.027-0.001-0.060-0.001-0.091 0-1.202 0.265-2.341 0.74-3.364 2.454-10.041 11.567-17.67 22.355-17.67 1.736 0 3.337 0.476 4.969 0.844 1.046-0.536 2.283-0.851 3.593-0.851 0.132 0 0.264 0.003 0.395 0.010l191.981-0c0.007 0 0.015 0 0.024 0 0.433 0 0.858 0.034 1.272 0.101 17.544 0.486 30.949 11.185 39.048 26.588 0.556 0.634 1.019 1.366 1.354 2.166 0.021 0.050 0.041 0.091 0.063 0.132 0.046 0.096 0.089 0.2 0.13 0.303l36.238 89.336c0.394 0.914 0.623 1.979 0.623 3.097 0 4.418-3.582 8.001-8.001 8.001-0.087 0-0.174-0.002-0.26-0.004-3.266-0.099-6.040-2.158-7.187-5.039l-36.050-88.961c-6.449-13.538-14.108-19.719-27.253-19.719h-178.969c0.012 0.022 0.045 0.094 0.076 0.166l56.552 159.833h58.344c0.034-0 0.074-0.001 0.113-0.001 4.418 0 8.001 3.582 8.001 8.001s-3.582 8.001-8.001 8.001c-0.040 0-0.079-0-0.119-0.001h-62.556c-0.36 0.069-0.78 0.114-1.208 0.125-0.083 0.003-0.167 0.004-0.252 0.004-0.793 0-1.56-0.115-2.284-0.331-0.048-0.005-0.102-0.015-0.156-0.027-0.171-0.066-0.337-0.129-0.499-0.197-3.060-1.026-5.291-3.849-5.447-7.213l-57.251-161.924c-0.013-0.022-0.045-0.094-0.076-0.166l-0.239-0.709c-0.031-0.087-0.076-0.233-0.115-0.382-0.874-2.997-3.561-5.181-6.856-5.181-4.016 0-7.094 3.095-7.094 7.125l0.128 142.875c0.001 0.042 0.001 0.091 0.001 0.14 0 0.425-0.033 0.843-0.097 1.25l0.006 84.424c0 12.814 9.349 20.188 23 20.188h50c7.007 0 13.022-2.093 16.969-5.219s6.031-6.925 6.031-12.281c0-12.367 5.62-20.957 11.469-25.219s12.063-4.906 12.063-4.906c0.244-0.026 0.526-0.041 0.813-0.041 4.424 0 8.010 3.586 8.010 8.010 0 4.137-3.137 7.542-7.163 7.966-0.035 0.003-1.997 0.219-4.316 1.909s-4.875 4.168-4.875 12.281c0 10.133-4.851 19.082-12.125 24.844s-16.746 8.656-26.875 8.656h-50zM319.188 351.97c-4.245-0.223-7.604-3.719-7.604-8 0-4.424 3.587-8.011 8.010-8.011 0.143 0 0.285 0.003 0.426 0.011l79.981-0.001c0.034-0 0.074-0.001 0.113-0.001 4.418 0 8.001 3.582 8.001 8.001s-3.582 8.001-8.001 8.001c-0.040 0-0.079-0-0.119-0.001h-79.994c-0.122 0.007-0.264 0.011-0.406 0.011s-0.285-0.004-0.426-0.011z" />
<glyph unicode="&#xe64b;" glyph-name="pagination-prev" d="M311.781 392.063c-2.16-0.062-4.096-0.971-5.498-2.405l-126.97-126.97c-1.708-1.197-2.917-3.008-3.305-5.107l-0.007-0.050c-0.032-0.148-0.065-0.35-0.090-0.555l-0.004-0.039c-0.006-0.027-0.017-0.102-0.028-0.177l-0.005-0.041c0-0.010 0-0.020 0-0.031s0-0.022 0-0.033v0.002c-0.024-0.23-0.037-0.497-0.037-0.767 0-2.753 1.391-5.183 3.509-6.622l0.028-0.018c0.002-0.003 0.034-0.024 0.065-0.044l0.030-0.019 126.812-126.844c1.457-1.513 3.502-2.452 5.764-2.452 4.418 0 8.001 3.582 8.001 8.001 0 2.263-0.94 4.307-2.45 5.762l-122.346 122.346 122.344 122.344c1.486 1.454 2.408 3.48 2.408 5.721 0 4.418-3.582 8.001-8.001 8.001-0.077 0-0.154-0.001-0.231-0.003l0.012 0z" />
<glyph unicode="&#xe64c;" glyph-name="pagination-next" d="M200.055 392.063c2.16-0.062 4.096-0.971 5.499-2.405l126.97-126.97c1.709-1.197 2.916-3.008 3.305-5.107l0.007-0.050c0.032-0.148 0.065-0.35 0.091-0.555l0.004-0.039c0.006-0.027 0.017-0.102 0.027-0.177l0.005-0.041c0-0.010 0-0.020 0-0.031s0-0.022 0-0.033v0.002c0.024-0.23 0.037-0.497 0.037-0.767 0-2.753-1.391-5.183-3.509-6.622l-0.028-0.018c-0.002-0.003-0.034-0.024-0.065-0.044l-0.030-0.019-126.813-126.844c-1.458-1.513-3.501-2.452-5.764-2.452-4.418 0-8.001 3.582-8.001 8.001 0 2.263 0.94 4.307 2.45 5.762l122.347 122.346-122.344 122.344c-1.486 1.454-2.407 3.48-2.407 5.721 0 4.418 3.582 8.001 8.001 8.001 0.077 0 0.154-0.001 0.231-0.003l-0.012 0z" />
<glyph unicode="&#xe64d;" glyph-name="pagination-last" d="M168.018 392.063c2.16-0.062 4.096-0.971 5.499-2.405l126.97-126.97c1.709-1.197 2.916-3.008 3.305-5.107l0.007-0.050c0.032-0.148 0.065-0.35 0.091-0.555l0.004-0.039c0.006-0.027 0.017-0.102 0.027-0.177l0.005-0.041c0-0.010 0-0.020 0-0.031s0-0.022 0-0.033v0.002c0.024-0.23 0.037-0.497 0.037-0.767 0-2.753-1.391-5.183-3.509-6.622l-0.028-0.018c-0.002-0.003-0.034-0.024-0.065-0.044l-0.030-0.019-126.813-126.844c-1.458-1.513-3.501-2.452-5.764-2.452-4.418 0-8.001 3.582-8.001 8.001 0 2.263 0.94 4.307 2.45 5.762l122.347 122.346-122.344 122.344c-1.486 1.454-2.407 3.48-2.407 5.721 0 4.418 3.582 8.001 8.001 8.001 0.077 0 0.154-0.001 0.231-0.003l-0.012 0zM248.055 392.084c2.16-0.062 4.096-0.971 5.499-2.405l126.97-126.97c1.709-1.197 2.916-3.008 3.305-5.107l0.007-0.049c0.032-0.148 0.065-0.35 0.091-0.554l0.004-0.039c0.006-0.028 0.017-0.103 0.027-0.177l0.005-0.042c0-0.010 0-0.020 0-0.031s0-0.022 0-0.033v0.001c0.024-0.23 0.037-0.496 0.037-0.766 0-2.753-1.391-5.183-3.509-6.622l-0.028-0.018c-0.002-0.003-0.034-0.024-0.065-0.044l-0.030-0.019-126.813-126.844c-1.458-1.513-3.501-2.452-5.764-2.452-4.418 0-8.001 3.582-8.001 8.001 0 2.263 0.94 4.306 2.45 5.762l122.347 122.346-122.344 122.344c-1.486 1.454-2.407 3.48-2.407 5.721 0 4.418 3.582 8.001 8.001 8.001 0.077 0 0.154-0.001 0.231-0.004l-0.012 0z" />
<glyph unicode="&#xe64e;" glyph-name="pagination-first" d="M343.981 392.063c-2.16-0.062-4.096-0.971-5.498-2.405l-126.97-126.97c-1.708-1.197-2.917-3.008-3.305-5.107l-0.007-0.050c-0.032-0.148-0.065-0.35-0.090-0.555l-0.004-0.039c-0.006-0.027-0.017-0.102-0.028-0.177l-0.005-0.041c0-0.010 0-0.020 0-0.031s0-0.022 0-0.033v0.002c-0.024-0.23-0.037-0.497-0.037-0.767 0-2.753 1.391-5.183 3.509-6.622l0.028-0.018c0.002-0.003 0.034-0.024 0.065-0.044l0.030-0.019 126.813-126.844c1.457-1.513 3.502-2.452 5.764-2.452 4.418 0 8.001 3.582 8.001 8.001 0 2.263-0.94 4.307-2.45 5.762l-122.346 122.346 122.344 122.344c1.486 1.454 2.408 3.48 2.408 5.721 0 4.418-3.582 8.001-8.001 8.001-0.077 0-0.154-0.001-0.231-0.003l0.012 0zM263.945 392.084c-2.16-0.062-4.096-0.971-5.498-2.405l-126.97-126.97c-1.708-1.197-2.917-3.008-3.305-5.107l-0.007-0.049c-0.032-0.148-0.065-0.35-0.090-0.554l-0.004-0.039c-0.006-0.028-0.017-0.103-0.028-0.177l-0.005-0.042c0-0.010 0-0.020 0-0.031s0-0.022 0-0.033v0.001c-0.024-0.23-0.037-0.496-0.037-0.766 0-2.753 1.391-5.183 3.509-6.622l0.028-0.018c0.002-0.003 0.034-0.024 0.065-0.044l0.030-0.019 126.812-126.844c1.457-1.513 3.502-2.452 5.764-2.452 4.418 0 8.001 3.582 8.001 8.001 0 2.263-0.94 4.306-2.45 5.762l-122.346 122.346 122.344 122.344c1.486 1.454 2.408 3.48 2.408 5.721 0 4.418-3.582 8.001-8.001 8.001-0.077 0-0.154-0.001-0.231-0.004l0.012 0z" />
<glyph unicode="&#xe64f;" glyph-name="custom-group-octothorpe" d="M234.625 391.781c-3.567-0.030-6.575-2.39-7.578-5.631l-20.89-66.181h-62.156c-0.121 0.007-0.263 0.011-0.406 0.011s-0.285-0.004-0.426-0.011c-4.226-0.221-7.584-3.718-7.584-7.999 0-4.424 3.587-8.011 8.011-8.011 0.143 0 0.285 0.003 0.426 0.011l57.105-0.001-30.313-96h-58.813c-0.121 0.007-0.263 0.010-0.406 0.010s-0.285-0.003-0.426-0.011c-4.226-0.221-7.584-3.718-7.584-7.999 0-4.424 3.587-8.010 8.010-8.010 0.143 0 0.285 0.003 0.426 0.011l53.73-0.001-18.719-59.344c-0.292-0.798-0.462-1.718-0.462-2.678 0-4.418 3.582-8.001 8.001-8.001 3.659 0 6.744 2.457 7.697 5.81l20.263 64.213h95.219l-18.719-59.344c-0.293-0.798-0.462-1.718-0.462-2.678 0-4.418 3.582-8.001 8.001-8.001 3.659 0 6.745 2.457 7.697 5.81l20.264 64.212h73.469c0.034-0 0.074-0.001 0.113-0.001 4.418 0 8.001 3.582 8.001 8.001s-3.582 8.001-8.001 8.001c-0.040 0-0.079-0-0.119-0.001h-68.4l30.281 96h70.125c0.034-0 0.074-0.001 0.113-0.001 4.418 0 8.001 3.582 8.001 8.001s-3.582 8.001-8.001 8.001c-0.040 0-0.079-0-0.119-0.001h-65.057l19.344 61.313c0.254 0.746 0.401 1.606 0.401 2.5 0 4.418-3.582 8.001-8.001 8.001-0.019 0-0.039 0-0.059 0-3.564-0.030-6.572-2.39-7.575-5.631l-20.89-66.182h-95.219l19.344 61.313c0.254 0.746 0.4 1.606 0.4 2.5 0 4.418-3.582 8.001-8.001 8.001-0.019 0-0.040 0-0.059 0zM217.875 303.969h95.25l-30.313-96h-95.219l30.281 96z" />
<glyph unicode="&#xe650;" glyph-name="resend" d="M295.906 410.594c-4.418-0.001-7.999-3.582-7.999-8.001 0-2.255 0.933-4.293 2.435-5.747l76.846-76.846h-159.188c-0.023 0-0.049 0-0.077 0-0.706 0-1.39-0.091-2.042-0.263-16.897-0.626-32.102-8.671-43.1-20.175-10.964-11.467-17.967-26.322-18.563-41.531-0.14-0.56-0.22-1.203-0.22-1.865 0-0.058 0-0.116 0.002-0.174v-63.991c0-0.023-0-0.050-0-0.077 0-0.705 0.091-1.39 0.263-2.041 0.626-16.897 8.671-32.101 20.175-43.101 11.443-10.94 26.262-17.909 41.438-18.531 0.053-0.002 0.103-0.029 0.156-0.031 0.559-0.139 1.201-0.219 1.861-0.219 0.038 0 0.076 0 0.113 0.001l127.995-0.125c0.034-0 0.074-0.001 0.113-0.001 4.418 0 8.001 3.582 8.001 8.001s-3.582 8.001-8.001 8.001c-0.040 0-0.079-0-0.119-0.001l-127.431 0.125c-0.084 0.003-0.183 0.005-0.281 0.005s-0.197-0.002-0.296-0.005c-10.82 0-23.155 5.423-32.486 14.344s-15.5 20.966-15.5 33.656v63.438c0.003 0.084 0.005 0.183 0.005 0.281s-0.002 0.197-0.006 0.296c0 10.82 5.423 23.154 14.344 32.486s20.966 15.5 33.656 15.5h159.188l-76.844-76.875c-1.517-1.459-2.459-3.505-2.459-5.771 0-4.418 3.582-8.001 8.001-8.001 2.267 0 4.313 0.942 5.769 2.457l90.502 90.534c1.447 1.447 2.342 3.447 2.342 5.656s-0.895 4.208-2.342 5.656l-90.5 90.5c-1.457 1.504-3.494 2.438-5.75 2.438z" />
<glyph unicode="&#xe651;" glyph-name="more" d="M112 208c-26.407 0-48-21.58-48-48s21.596-48 48-48c26.416 0 48 21.58 48 48s-21.58 48-48 48zM256 208c-26.42 0-48-21.584-48-48s21.584-48 48-48c26.404 0 48 21.576 48 48s-21.592 48-48 48zM400 208c-26.42 0-48-21.584-48-48s21.584-48 48-48c26.404 0 48 21.576 48 48s-21.592 48-48 48zM112 192.281c17.926 0 32.281-14.355 32.281-32.281s-14.351-32.281-32.281-32.281c-17.911 0-32.281 14.355-32.281 32.281s14.374 32.281 32.281 32.281zM256 192.281c17.908 0 32.281-14.359 32.281-32.281s-14.37-32.281-32.281-32.281c-17.93 0-32.281 14.351-32.281 32.281s14.355 32.281 32.281 32.281zM400 192.281c17.908 0 32.281-14.359 32.281-32.281s-14.37-32.281-32.281-32.281c-17.93 0-32.281 14.351-32.281 32.281s14.355 32.281 32.281 32.281z" />
<glyph unicode="&#xe652;" glyph-name="star-outline" d="M255.727 460.798c-0.256-0.009-0.512-0.018-0.768-0.045-3.376-0.356-6.503-2.514-8.060-5.531l-62.495-121.153-134.586-21.923c-3.71-0.605-6.968-3.401-8.128-6.976s-0.164-7.763 2.483-10.431l95.91-96.881-20.727-134.744c-0.573-3.716 1.067-7.702 4.109-9.911s7.345-2.553 10.702-0.858l121.762 61.276 121.762-61.367c3.355-1.693 7.638-1.327 10.68 0.88s4.701 6.175 4.132 9.889l-20.636 134.744 95.978 96.836c2.641 2.669 3.621 6.86 2.461 10.431s-4.423 6.369-8.128 6.976l-134.541 22.013-62.428 121.197c-1.769 3.434-5.633 5.668-9.482 5.577zM255.953 394.147l47.82-92.84 103.090-16.843-73.513-74.191 2.732-17.972 13.072-85.231-93.246 47.007-93.314-46.939 15.917 103.226-73.49 74.19 103.067 16.798 8.354 16.166 39.511 76.629z" />
<glyph unicode="&#xe653;" glyph-name="headers" d="M314.75 397.688c-0.024 0-0.053 0-0.082 0-3.254 0-6.054-1.942-7.305-4.731l-115.239-253.050c-0.494-1.010-0.782-2.197-0.782-3.451 0-4.418 3.582-8.001 8.001-8.001 3.271 0 6.083 1.963 7.324 4.776l115.208 253.020c0.49 1.006 0.776 2.188 0.776 3.438 0 4.384-3.526 7.944-7.896 8zM175.063 319.406c-1.879-0.095-3.572-0.825-4.884-1.976l-55.272-46.586c-1.747-1.478-2.849-3.671-2.849-6.121 0-2.421 1.075-4.59 2.774-6.058l55.291-47.477c1.409-1.264 3.281-2.038 5.334-2.038 4.418 0 8.001 3.582 8.001 8.001 0 2.473-1.122 4.683-2.884 6.151l-48.169 41.354 48.094 40.563c1.799 1.478 2.939 3.704 2.939 6.196 0 4.418-3.582 8.001-8.001 8.001-0.132 0-0.263-0.003-0.393-0.010zM343.281 319.406c-4.123-0.354-7.337-3.788-7.337-7.973 0-2.502 1.149-4.736 2.947-6.203l48.108-40.574-48.156-41.344c-1.776-1.478-2.897-3.689-2.897-6.161 0-4.418 3.582-8.001 8.001-8.001 2.053 0 3.925 0.773 5.341 2.044l55.274 47.462c1.709 1.476 2.784 3.646 2.784 6.066 0 2.451-1.101 4.644-2.837 6.112l-55.293 46.603c-1.365 1.195-3.156 1.935-5.118 1.969-0.128 0.007-0.271 0.011-0.413 0.011s-0.285-0.004-0.426-0.011z" />
<glyph unicode="&#xe654;" glyph-name="google-drive" d="M51.2 204.361l130.053 225.259 67.411-116.582-130.053-225.259zM327.777 209.852l-130.053 225.259 134.668 0.089 130.053-225.259zM202.339 193.471h260.106l-67.257-116.671h-260.106z" />
<glyph unicode="&#xe655;" glyph-name="dropbox" d="M169.929 435.2l-119.502-78.525 83.982-69.519 119.499 78.526-83.978 69.518zM134.409 287.156l-83.982-69.392 119.502-78.524 83.978 69.519-119.499 78.398zM342.075 435.2l-83.982-69.518 119.502-78.526 83.978 69.519-119.499 78.526zM377.595 287.156l-119.502-78.398 83.982-69.519 119.499 78.524-83.978 69.392zM255.937 197.214l-79.541-65.839-5.833-4.693-6.219 4.060-34.757 22.834v-29.304l126.607-73.070 126.476 73.070v29.431l-41.228-27.021-5.837 4.693-79.667 65.839z" />
<glyph unicode="&#xe656;" glyph-name="files" d="M281.6 435.2c-41.374-0.147-72.246-21.316-95.463-62.693-61.058 22.62-122.29-35.167-102.781-97.773-51.584 1.332-83.356-39.544-83.356-85.334 0-56.245 44.456-87 101.243-87h308.586c56.414 0 102.171 45.722 102.171 101.831s-38.037 93.571-92.089 93.644c4.7 76.996-46.575 137.65-138.31 137.325zM256 153.6l-85.945 76.8h60.344v102.4h51.2v-102.4h51.2z" />
<glyph unicode="&#xe657;" glyph-name="desktop" d="M52.806 435.211c-15.014 0-27.206-12.192-27.206-27.206v-227.2c0-15.014 12.192-27.206 27.206-27.206h126.391c0.195-7.781 0-41.281-5.418-51.207h-7.608c-6.959-0.010-12.553-5.765-12.553-12.801s5.594-12.801 12.553-12.801h128.468c6.959 0 12.576 5.765 12.576 12.801s-5.616 12.793-12.576 12.801h-7.608c-5.418 9.925-5.613 43.426-5.418 51.207h126.391c15.014 0 27.206 12.192 27.206 27.206v227.2c0 15.014-12.192 27.206-27.206 27.206zM51.203 409.608h358.399v-230.406h-358.399z" />
<glyph unicode="&#xe658;" glyph-name="settingskey" d="M218.23 448.45c-32.375 0-58.754-26.38-58.754-58.754v-75.541c0-28.777 21.583-51.56 47.963-56.356v-185.855c0-3.597 3.597-7.195 8.393-7.195h80.337c3.597 0 7.195 3.597 7.195 7.195v185.855c27.577 4.796 47.962 27.578 47.962 56.356v75.541c0 32.375-25.18 58.754-57.554 58.754h-75.541zM218.23 431.663h75.542c22.782 0 41.966-17.986 41.966-41.967v-75.541c0-22.782-17.985-40.768-40.767-41.967-3.597 0-7.195-3.597-7.195-8.394v-103.118h-15.588c-1.199 0-1.199 0-1.199 0-10.791-1.199-9.592-16.787 1.199-16.787h15.588v-15.588h-32.375c0 0 0 0 0 0-10.791 0-10.791-16.787 0-15.588h32.375v-32.375h-63.551v183.456c0 4.796-3.597 8.393-8.393 8.393-21.583 1.199-39.57 19.185-39.57 41.968v75.541c0 23.981 17.986 41.967 41.968 41.967zM256.599 405.284c-15.588 0-28.778-13.19-28.778-29.976 0-15.588 13.19-28.777 28.778-28.777 16.787 0 29.977 13.19 29.977 28.777 0 16.787-13.19 29.976-29.977 29.976zM256.599 389.696c8.394 0 14.389-5.995 14.389-14.389 0-7.195-5.995-13.19-14.389-13.19-7.195 0-13.19 5.995-13.19 13.19 0 8.393 5.995 14.389 13.19 14.389z" />
<glyph unicode="&#xe659;" glyph-name="key2" d="M218.23 448.45c-32.375 0-58.754-26.38-58.754-58.754v-75.541c0-28.777 21.583-51.56 47.963-56.356v-185.855c0-3.597 3.597-7.195 8.393-7.195h80.337c3.597 0 7.195 3.597 7.195 7.195v185.855c27.577 4.796 47.962 27.578 47.962 56.356v75.541c0 32.375-25.18 58.754-57.554 58.754h-75.541zM218.23 431.663h75.542c22.782 0 41.966-17.986 41.966-41.967v-75.541c0-22.782-17.985-40.768-40.767-41.967-3.597 0-7.195-3.597-7.195-8.394v-103.118h-15.588c-1.199 0-1.199 0-1.199 0-10.791-1.199-9.592-16.787 1.199-16.787h15.588v-15.588h-32.375c0 0 0 0 0 0-10.791 0-10.791-16.787 0-15.588h32.375v-32.375h-63.551v183.456c0 4.796-3.597 8.393-8.393 8.393-21.583 1.199-39.57 19.185-39.57 41.968v75.541c0 23.981 17.986 41.967 41.968 41.967zM256.599 405.284c-15.588 0-28.778-13.19-28.778-29.976 0-15.588 13.19-28.777 28.778-28.777 16.787 0 29.977 13.19 29.977 28.777 0 16.787-13.19 29.976-29.977 29.976zM256.599 389.696c8.394 0 14.389-5.995 14.389-14.389 0-7.195-5.995-13.19-14.389-13.19-7.195 0-13.19 5.995-13.19 13.19 0 8.393 5.995 14.389 13.19 14.389z" />
<glyph unicode="&#xe65a;" glyph-name="new_link" d="M104.406 448c-22.338 0-40.25-18.957-40.25-41.719v-300.594c0-22.749 17.942-41.688 40.281-41.688h303.219c22.339 0 40.25 18.947 40.25 41.688l-0.032 300.594c0.001 22.752-17.879 41.719-40.218 41.719h-303.25zM104.374 432h303.25c13.31 0 24.219-11.223 24.219-25.719l0.064-300.594c0-14.476-10.94-25.688-24.25-25.688h-303.251c-13.309 0-24.281 11.221-24.281 25.688v300.594c0 14.487 10.941 25.719 24.25 25.719zM299.906 386.281c-4.418-0.001-7.999-3.583-7.999-8.001 0-2.255 0.933-4.293 2.435-5.747l45.565-45.534c-43.308 3.683-86.469-5.276-118.719-29.5-38.18-28.678-59.614-78.94-46.375-149.219 0.665-3.714 3.817-6.513 7.644-6.625 0.078-0.002 0.156-0.003 0.234-0.003 4.418 0 8.001 3.582 8.001 8.001 0 0.565-0.059 1.116-0.17 1.648-12.416 65.909 6.804 108.256 40.259 133.385 29.848 22.42 72.178 30.701 114.563 25.75l-51-51.031c-1.516-1.458-2.457-3.504-2.457-5.77 0-4.418 3.582-8.001 8.001-8.001 2.265 0 4.312 0.942 5.767 2.455l60.752 60.784c2.513 1.382 4.188 4.012 4.188 7.034 0 2.844-1.483 5.341-3.719 6.76-0.034 0.022-0.066 0.043-0.098 0.063l-61.125 61.113c-1.457 1.504-3.494 2.438-5.75 2.438 0 0 0 0 0 0z" />
<glyph unicode="&#xe65b;" glyph-name="fetcher" d="M307.2 153.6c-153.6 0-153.6 25.6-153.6 153.6h102.4l-128 128-128-128h102.4c0-179.2 25.6-204.8 204.8-204.8z" />
<glyph unicode="&#xe65c;" glyph-name="shared" d="M308.655 292.28l-31.332-30.505c-2.31 2.896-4.727 4.067-8.175 7.548-6.755 6.756-14.891 10.134-24.404 10.134s-17.648-3.378-24.404-10.134l-129.398-129.466c-6.755-6.756-10.133-14.856-10.133-24.404 0-9.514 3.378-17.648 10.133-24.37 6.757-6.756 14.891-10.134 24.405-10.134 9.513 0 17.647 3.378 24.404 10.134l81.554 81.554 48.394-49.222-75.039-75.005c-17.062-17.062-38.813-24.542-65.319-22.474-26.473 2.103-49.809 13.236-70.041 33.469-20.061 20.061-31.16 43.362-33.331 69.938s5.239 48.394 22.301 65.457l117.161 117.195c17.062 17.062 38.811 24.542 65.284 22.439 26.507-2.068 49.842-13.236 70.076-33.47 7.962-7.962 3.901-5.238 7.863-8.685zM203.345 219.721l31.333 30.505c2.31-2.896 4.727-4.067 8.174-7.548 6.756-6.756 14.891-10.134 24.404-10.134s17.648 3.378 24.404 10.134l129.397 129.466c6.755 6.756 10.134 14.856 10.134 24.404 0 9.514-3.378 17.648-10.134 24.37-6.757 6.756-14.89 10.134-24.405 10.134-9.513 0-17.648-3.378-24.404-10.134l-81.554-81.554-48.394 49.222 75.039 75.005c17.062 17.062 38.813 24.542 65.319 22.473 26.473-2.102 49.808-13.236 70.041-33.469 20.061-20.061 31.161-43.362 33.332-69.938s-5.239-48.394-22.302-65.457l-117.161-117.195c-17.062-17.063-38.813-24.542-65.284-22.44-26.506 2.068-49.842 13.236-70.076 33.469-7.962 7.962-3.9 5.238-7.863 8.685z" />
<glyph unicode="&#xe65d;" glyph-name="drag-handler" d="M179.213 460.791l-102.413-102.39h204.803zM25.603 332.793c-14.182 0-25.603-11.421-25.603-25.603s11.421-25.603 25.603-25.603h307.193c14.183 0 25.603 11.421 25.603 25.603s-11.421 25.603-25.603 25.603zM25.603 230.403c-14.182 0-25.603-11.421-25.603-25.603s11.421-25.603 25.603-25.603h307.193c14.183 0 25.603 11.421 25.603 25.603s-11.421 25.603-25.603 25.603zM76.8 153.6l102.413-102.39 102.39 102.39z" />
</font>
</defs>
</svg>
